  0
SECTION
  2
HEADER
  9
$ACADVER
  1
AC1027
  9
$ACADMAINTVER
 70
    55
  9
$DWGCODEPAGE
  3
ANSI_949
  9
$LASTSAVEDBY
  1
DESKTOP
  9
$REQUIREDVERSIONS
160
                 0
  9
$INSBASE
 10
0.0
 20
0.0
 30
0.0
  9
$EXTMIN
 10
-2.746735273561057
 20
-2.758108336115355
 30
-0.000000000000013
  9
$EXTMAX
 10
269.4489298862138
 20
189.1587986009283
 30
0.0000000000000023
  9
$LIMMIN
 10
0.0
 20
0.0
  9
$LIMMAX
 10
420.0
 20
297.0
  9
$ORTHOMODE
 70
     1
  9
$REGENMODE
 70
     1
  9
$FILLMODE
 70
     1
  9
$QTEXTMODE
 70
     0
  9
$MIRRTEXT
 70
     0
  9
$LTSCALE
 40
5.0
  9
$ATTMODE
 70
     1
  9
$TEXTSIZE
 40
3.0
  9
$TRACEWID
 40
1.0
  9
$TEXTSTYLE
  7
Standard
  9
$CLAYER
  8
0
  9
$CELTYPE
  6
Continuous
  9
$CECOLOR
 62
     7
  9
$CELTSCALE
 40
1.0
  9
$DISPSILH
 70
     0
  9
$DIMSCALE
 40
1.0
  9
$DIMASZ
 40
2.5
  9
$DIMEXO
 40
0.625
  9
$DIMDLI
 40
3.75
  9
$DIMRND
 40
0.0
  9
$DIMDLE
 40
0.0
  9
$DIMEXE
 40
1.25
  9
$DIMTP
 40
0.0
  9
$DIMTM
 40
0.000000001
  9
$DIMTXT
 40
3.0
  9
$DIMCEN
 40
-0.5
  9
$DIMTSZ
 40
0.0
  9
$DIMTOL
 70
     0
  9
$DIMLIM
 70
     0
  9
$DIMTIH
 70
     0
  9
$DIMTOH
 70
     0
  9
$DIMSE1
 70
     0
  9
$DIMSE2
 70
     0
  9
$DIMTAD
 70
     1
  9
$DIMZIN
 70
     8
  9
$DIMBLK
  1

  9
$DIMASO
 70
     1
  9
$DIMSHO
 70
     1
  9
$DIMPOST
  1

  9
$DIMAPOST
  1

  9
$DIMALT
 70
     0
  9
$DIMALTD
 70
     3
  9
$DIMALTF
 40
0.03937007874016
  9
$DIMLFAC
 40
1.0
  9
$DIMTOFL
 70
     1
  9
$DIMTVP
 40
0.0
  9
$DIMTIX
 70
     0
  9
$DIMSOXD
 70
     0
  9
$DIMSAH
 70
     0
  9
$DIMBLK1
  1

  9
$DIMBLK2
  1

  9
$DIMSTYLE
  2
Standard
  9
$DIMCLRD
 70
     3
  9
$DIMCLRE
 70
     3
  9
$DIMCLRT
 70
     2
  9
$DIMTFAC
 40
0.7
  9
$DIMGAP
 40
0.625
  9
$DIMJUST
 70
     0
  9
$DIMSD1
 70
     0
  9
$DIMSD2
 70
     0
  9
$DIMTOLJ
 70
     0
  9
$DIMTZIN
 70
     8
  9
$DIMALTZ
 70
     0
  9
$DIMALTTZ
 70
     0
  9
$DIMUPT
 70
     0
  9
$DIMDEC
 70
     8
  9
$DIMTDEC
 70
     8
  9
$DIMALTU
 70
     2
  9
$DIMALTTD
 70
     3
  9
$DIMTXSTY
  7
Standard
  9
$DIMAUNIT
 70
     1
  9
$DIMADEC
 70
     0
  9
$DIMALTRND
 40
0.0
  9
$DIMAZIN
 70
     0
  9
$DIMDSEP
 70
    46
  9
$DIMATFIT
 70
     3
  9
$DIMFRAC
 70
     0
  9
$DIMLDRBLK
  1

  9
$DIMLUNIT
 70
     2
  9
$DIMLWD
 70
    -1
  9
$DIMLWE
 70
    -1
  9
$DIMTMOVE
 70
     0
  9
$DIMFXL
 40
1.0
  9
$DIMFXLON
 70
     0
  9
$DIMJOGANG
 40
0.7853981633974483
  9
$DIMTFILL
 70
     0
  9
$DIMTFILLCLR
 70
     0
  9
$DIMARCSYM
 70
     1
  9
$DIMLTYPE
  6

  9
$DIMLTEX1
  6

  9
$DIMLTEX2
  6

  9
$DIMTXTDIRECTION
 70
     0
  9
$LUNITS
 70
     2
  9
$LUPREC
 70
     4
  9
$SKETCHINC
 40
0.0
  9
$FILLETRAD
 40
0.0
  9
$AUNITS
 70
     0
  9
$AUPREC
 70
     0
  9
$MENU
  1
.
  9
$ELEVATION
 40
0.0
  9
$PELEVATION
 40
0.0
  9
$THICKNESS
 40
0.0
  9
$LIMCHECK
 70
     0
  9
$CHAMFERA
 40
1.5
  9
$CHAMFERB
 40
1.5
  9
$CHAMFERC
 40
0.0
  9
$CHAMFERD
 40
0.0087266462599716
  9
$SKPOLY
 70
     0
  9
$TDCREATE
 40
2455072.745932974
  9
$TDUCREATE
 40
2455072.370932974
  9
$TDUPDATE
 40
2461005.623555035
  9
$TDUUPDATE
 40
2461005.248555035
  9
$TDINDWG
 40
132.1093982176
  9
$TDUSRTIMER
 40
132.1093980324
  9
$USRTIMER
 70
     1
  9
$ANGBASE
 50
0.0
  9
$ANGDIR
 70
     0
  9
$PDMODE
 70
     0
  9
$PDSIZE
 40
0.0
  9
$PLINEWID
 40
0.0
  9
$SPLFRAME
 70
     0
  9
$SPLINETYPE
 70
     6
  9
$SPLINESEGS
 70
     8
  9
$HANDSEED
  5
3F8BC
  9
$SURFTAB1
 70
     6
  9
$SURFTAB2
 70
     6
  9
$SURFTYPE
 70
     6
  9
$SURFU
 70
     6
  9
$SURFV
 70
     6
  9
$UCSBASE
  2

  9
$UCSNAME
  2

  9
$UCSORG
 10
0.0
 20
0.0
 30
0.0
  9
$UCSXDIR
 10
1.0
 20
0.0
 30
0.0
  9
$UCSYDIR
 10
0.0
 20
1.0
 30
0.0
  9
$UCSORTHOREF
  2

  9
$UCSORTHOVIEW
 70
     0
  9
$UCSORGTOP
 10
0.0
 20
0.0
 30
0.0
  9
$UCSORGBOTTOM
 10
0.0
 20
0.0
 30
0.0
  9
$UCSORGLEFT
 10
0.0
 20
0.0
 30
0.0
  9
$UCSORGRIGHT
 10
0.0
 20
0.0
 30
0.0
  9
$UCSORGFRONT
 10
0.0
 20
0.0
 30
0.0
  9
$UCSORGBACK
 10
0.0
 20
0.0
 30
0.0
  9
$PUCSBASE
  2

  9
$PUCSNAME
  2

  9
$PUCSORG
 10
0.0
 20
0.0
 30
0.0
  9
$PUCSXDIR
 10
1.0
 20
0.0
 30
0.0
  9
$PUCSYDIR
 10
0.0
 20
1.0
 30
0.0
  9
$PUCSORTHOREF
  2

  9
$PUCSORTHOVIEW
 70
     0
  9
$PUCSORGTOP
 10
0.0
 20
0.0
 30
0.0
  9
$PUCSORGBOTTOM
 10
0.0
 20
0.0
 30
0.0
  9
$PUCSORGLEFT
 10
0.0
 20
0.0
 30
0.0
  9
$PUCSORGRIGHT
 10
0.0
 20
0.0
 30
0.0
  9
$PUCSORGFRONT
 10
0.0
 20
0.0
 30
0.0
  9
$PUCSORGBACK
 10
0.0
 20
0.0
 30
0.0
  9
$USERI1
 70
     0
  9
$USERI2
 70
     0
  9
$USERI3
 70
     0
  9
$USERI4
 70
     0
  9
$USERI5
 70
     0
  9
$USERR1
 40
0.0
  9
$USERR2
 40
0.0
  9
$USERR3
 40
0.0
  9
$USERR4
 40
0.0
  9
$USERR5
 40
0.0
  9
$WORLDVIEW
 70
     1
  9
$SHADEDGE
 70
     3
  9
$SHADEDIF
 70
    70
  9
$TILEMODE
 70
     1
  9
$MAXACTVP
 70
    64
  9
$PINSBASE
 10
0.0
 20
0.0
 30
0.0
  9
$PLIMCHECK
 70
     0
  9
$PEXTMIN
 10
1.000000000000000E+20
 20
1.000000000000000E+20
 30
1.000000000000000E+20
  9
$PEXTMAX
 10
-1.000000000000000E+20
 20
-1.000000000000000E+20
 30
-1.000000000000000E+20
  9
$PLIMMIN
 10
-20.0
 20
-7.5
  9
$PLIMMAX
 10
277.0
 20
202.5
  9
$UNITMODE
 70
     0
  9
$VISRETAIN
 70
     1
  9
$PLINEGEN
 70
     0
  9
$PSLTSCALE
 70
     1
  9
$TREEDEPTH
 70
  3020
  9
$CMLSTYLE
  2
Standard
  9
$CMLJUST
 70
     0
  9
$CMLSCALE
 40
20.0
  9
$PROXYGRAPHICS
 70
     1
  9
$MEASUREMENT
 70
     1
  9
$CELWEIGHT
370
    -1
  9
$ENDCAPS
280
     0
  9
$JOINSTYLE
280
     0
  9
$LWDISPLAY
290
     0
  9
$INSUNITS
 70
     4
  9
$HYPERLINKBASE
  1

  9
$STYLESHEET
  1
ksm0910.ctb
  9
$XEDIT
290
     1
  9
$CEPSNTYPE
380
     0
  9
$PSTYLEMODE
290
     1
  9
$FINGERPRINTGUID
  2
{D2C70C36-9B4F-4E20-9CCB-531AA1EE4AC8}
  9
$VERSIONGUID
  2
{29855D2E-A5AC-4F1D-9F54-4019E47DE793}
  9
$EXTNAMES
290
     1
  9
$PSVPSCALE
 40
0.0
  9
$OLESTARTUP
290
     0
  9
$SORTENTS
280
   127
  9
$INDEXCTL
280
     0
  9
$HIDETEXT
280
     1
  9
$XCLIPFRAME
280
     2
  9
$HALOGAP
280
     0
  9
$OBSCOLOR
 70
   257
  9
$OBSLTYPE
280
     0
  9
$INTERSECTIONDISPLAY
280
     0
  9
$INTERSECTIONCOLOR
 70
   257
  9
$DIMASSOC
280
     1
  9
$PROJECTNAME
  1

  9
$CAMERADISPLAY
290
     0
  9
$LENSLENGTH
 40
50.0
  9
$CAMERAHEIGHT
 40
0.0
  9
$STEPSPERSEC
 40
2.0
  9
$STEPSIZE
 40
6.0
  9
$3DDWFPREC
 40
2.0
  9
$PSOLWIDTH
 40
5.0
  9
$PSOLHEIGHT
 40
80.0
  9
$LOFTANG1
 40
1.570796326794896
  9
$LOFTANG2
 40
1.570796326794896
  9
$LOFTMAG1
 40
0.0
  9
$LOFTMAG2
 40
0.0
  9
$LOFTPARAM
 70
     7
  9
$LOFTNORMALS
280
     1
  9
$LATITUDE
 40
37.795
  9
$LONGITUDE
 40
-122.394
  9
$NORTHDIRECTION
 40
0.0
  9
$TIMEZONE
 70
 -8000
  9
$LIGHTGLYPHDISPLAY
280
     1
  9
$TILEMODELIGHTSYNCH
280
     1
  9
$CMATERIAL
347
3D
  9
$SOLIDHIST
280
     1
  9
$SHOWHIST
280
     1
  9
$DWFFRAME
280
     2
  9
$DGNFRAME
280
     0
  9
$REALWORLDSCALE
290
     1
  9
$INTERFERECOLOR
 62
     1
  9
$INTERFEREOBJVS
345
46
  9
$INTERFEREVPVS
346
47
  9
$CSHADOW
280
     0
  9
$SHADOWPLANELOCATION
 40
0.0
  0
ENDSEC
  0
SECTION
  2
CLASSES
  0
CLASS
  1
ACDBDICTIONARYWDFLT
  2
AcDbDictionaryWithDefault
  3
ObjectDBX Classes
 90
        0
 91
        1
280
     0
281
     0
  0
CLASS
  1
DICTIONARYVAR
  2
AcDbDictionaryVar
  3
ObjectDBX Classes
 90
        0
 91
       18
280
     0
281
     0
  0
CLASS
  1
TABLESTYLE
  2
AcDbTableStyle
  3
ObjectDBX Classes
 90
     4095
 91
        1
280
     0
281
     0
  0
CLASS
  1
MATERIAL
  2
AcDbMaterial
  3
ObjectDBX Classes
 90
     1153
 91
        3
280
     0
281
     0
  0
CLASS
  1
VISUALSTYLE
  2
AcDbVisualStyle
  3
ObjectDBX Classes
 90
     4095
 91
       26
280
     0
281
     0
  0
CLASS
  1
SCALE
  2
AcDbScale
  3
ObjectDBX Classes
 90
     1153
 91
       17
280
     0
281
     0
  0
CLASS
  1
MLEADERSTYLE
  2
AcDbMLeaderStyle
  3
ACDB_MLEADERSTYLE_CLASS
 90
     4095
 91
        1
280
     0
281
     0
  0
CLASS
  1
CELLSTYLEMAP
  2
AcDbCellStyleMap
  3
ObjectDBX Classes
 90
     1152
 91
        2
280
     0
281
     0
  0
CLASS
  1
SORTENTSTABLE
  2
AcDbSortentsTable
  3
ObjectDBX Classes
 90
        0
 91
        1
280
     0
281
     0
  0
CLASS
  1
DIMASSOC
  2
AcDbDimAssoc
  3
"AcDbDimAssoc|Product Desc:     AcDim ARX App For Dimension|Company:          Autodesk, Inc.|WEB Address:      www.autodesk.com"
 90
        0
 91
        0
280
     0
281
     0
  0
CLASS
  1
SOLID_BACKGROUND
  2
AcDbSolidBackground
  3
SCENEOE
 90
     4095
 91
        0
280
     0
281
     0
  0
CLASS
  1
NPOCOLLECTION
  2
AcDbImpNonPersistentObjectsCollection
  3
ObjectDBX Classes
 90
     1153
 91
        0
280
     0
281
     0
  0
CLASS
  1
ACAD_EVALUATION_GRAPH
  2
AcDbEvalGraph
  3
ObjectDBX Classes
 90
     1153
 91
        0
280
     0
281
     0
  0
CLASS
  1
ACAECUSTOBJ
  2
AcAeEditorObj
  3
AcAeEditorObj
 90
     1024
 91
        0
280
     1
281
     0
  0
CLASS
  1
ACDB_DYNAMICBLOCKPURGEPREVENTER_VERSION
  2
AcDbDynamicBlockPurgePreventer
  3
ObjectDBX Classes
 90
     1153
 91
        0
280
     0
281
     0
  0
CLASS
  1
HELIX
  2
AcDbHelix
  3
ObjectDBX Classes
 90
     4095
 91
        0
280
     0
281
     1
  0
CLASS
  1
MULTILEADER
  2
AcDbMLeader
  3
ACDB_MLEADER_CLASS
 90
     1025
 91
        0
280
     0
281
     1
  0
CLASS
  1
ACMDIMBREAKPERSREACTOR
  2
AcmDimBreakPersReactor
  3
amgDimApp().moduleName()
 90
     1023
 91
        0
280
     1
281
     0
  0
CLASS
  1
ACDB_MTEXTOBJECTCONTEXTDATA_CLASS
  2
AcDbMTextObjectContextData
  3
ObjectDBX Classes
 90
     1153
 91
        0
280
     0
281
     0
  0
CLASS
  1
BREAKDATA
  2
AcDbBreakData
  3
ObjectDBX Classes
 90
     1024
 91
        0
280
     0
281
     0
  0
CLASS
  1
EXACXREFPANELOBJECT
  2
ExAcXREFPanelObject
  3
EXAC_ESW
 90
     1025
 91
        0
280
     1
281
     0
  0
CLASS
  1
ACDBSECTIONVIEWSTYLE
  2
AcDbSectionViewStyle
  3
ObjectDBX Classes
 90
     1025
 91
        2
280
     0
281
     0
  0
CLASS
  1
ACDBDETAILVIEWSTYLE
  2
AcDbDetailViewStyle
  3
ObjectDBX Classes
 90
     1025
 91
        2
280
     0
281
     0
  0
CLASS
  1
ACDBASSOCACTION
  2
AcDbAssocAction
  3
ObjectDBX Classes
 90
     1025
 91
        1
280
     0
281
     0
  0
CLASS
  1
ACDBASSOCARRAYACTIONBODY
  2
AcDbAssocArrayActionBody
  3
ObjectDBX Classes
 90
     1025
 91
        1
280
     0
281
     0
  0
CLASS
  1
ACDBASSOCDEPENDENCY
  2
AcDbAssocDependency
  3
ObjectDBX Classes
 90
     1025
 91
        3
280
     0
281
     0
  0
CLASS
  1
ACDBASSOCVERTEXACTIONPARAM
  2
AcDbAssocVertexActionParam
  3
ObjectDBX Classes
 90
     1025
 91
        3
280
     0
281
     0
  0
CLASS
  1
ACDBASSOCARRAYPOLARPARAMETERS
  2
AcDbAssocArrayPolarParameters
  3
ObjectDBX Classes
 90
     1025
 91
        0
280
     0
281
     0
  0
CLASS
  1
ACDBASSOCNETWORK
  2
AcDbAssocNetwork
  3
ObjectDBX Classes
 90
     1025
 91
        2
280
     0
281
     0
  0
CLASS
  1
ACARRAYJIGENTITY
  2
AcArrayJigEntity
  3
ACAD_ARRAY
 90
      129
 91
        0
280
     0
281
     1
  0
ENDSEC
  0
SECTION
  2
TABLES
  0
TABLE
  2
VPORT
  5
2C
102
{ACAD_XDICTIONARY
360
31
102
}
330
0
100
AcDbSymbolTable
 70
     1
  0
VPORT
  5
2D
330
2C
100
AcDbSymbolTableRecord
100
AcDbViewportTableRecord
  2
*Active
 70
     0
 10
0.0
 20
0.0
 11
1.0
 21
1.0
 12
133.3437174479568
 22
93.20245006186292
 13
0.0
 23
0.0
 14
2.0
 24
2.0
 15
2.0
 25
2.0
 16
0.0
 26
0.0
 36
1.0
 17
0.0
 27
0.0
 37
0.0
 40
193.5322154571513
 41
2.15871121718377
 42
50.0
 43
0.0
 44
0.0
 50
0.0
 51
0.0
 71
     0
 72
  1000
 73
     1
 74
     3
 75
     0
 76
     0
 77
     0
 78
     1
281
     0
 65
     1
110
0.0
120
0.0
130
0.0
111
1.0
121
0.0
131
0.0
112
0.0
122
1.0
132
0.0
 79
     0
146
0.0
348
2E
 60
     3
 61
     5
292
     1
282
     1
141
0.0
142
0.0
 63
   250
421
  3355443
1001
ACAD_NAV_VCDISPLAY
1070
     3
  0
ENDTAB
  0
TABLE
  2
LTYPE
  5
27
330
0
100
AcDbSymbolTable
 70
     3
  0
LTYPE
  5
28
330
27
100
AcDbSymbolTableRecord
100
AcDbLinetypeTableRecord
  2
ByBlock
 70
     0
  3

 72
    65
 73
     0
 40
0.0
  0
LTYPE
  5
29
330
27
100
AcDbSymbolTableRecord
100
AcDbLinetypeTableRecord
  2
ByLayer
 70
     0
  3

 72
    65
 73
     0
 40
0.0
  0
LTYPE
  5
14
330
27
100
AcDbSymbolTableRecord
100
AcDbLinetypeTableRecord
  2
Continuous
 70
     0
  3
Solid line
 72
    65
 73
     0
 40
0.0
  0
LTYPE
  5
39E15
330
27
100
AcDbSymbolTableRecord
100
AcDbLinetypeTableRecord
  2
CENTER
 70
     0
  3
____ _ ____ _ ____ _ ____ _ ____ _ ____ _ ____ 
 72
    65
 73
     4
 40
2.0
 49
1.25
 74
     0
 49
-0.25
 74
     0
 49
0.25
 74
     0
 49
-0.25
 74
     0
  0
LTYPE
  5
3BE46
330
27
100
AcDbSymbolTableRecord
100
AcDbLinetypeTableRecord
  2
HIDDEN
 70
     0
  3
Hidden __ __ __ __ __ __ __ __ __ __ __ __ __ _
 72
    65
 73
     2
 40
9.524999999999998
 49
6.349999999999999
 74
     0
 49
-3.174999999999999
 74
     0
  0
ENDTAB
  0
TABLE
  2
LAYER
  5
21
102
{ACAD_XDICTIONARY
360
22
102
}
330
0
100
AcDbSymbolTable
 70
     3
  0
LAYER
  5
6
102
{ACAD_XDICTIONARY
360
7
102
}
330
21
100
AcDbSymbolTableRecord
100
AcDbLayerTableRecord
  2
0
 70
     0
 62
     7
  6
Continuous
370
    -3
390
9
347
C
348
0
  0
LAYER
  5
1A4
330
21
100
AcDbSymbolTableRecord
100
AcDbLayerTableRecord
  2
DEFPOINTS
 70
     0
 62
     7
  6
Continuous
290
     0
370
    -3
390
9
347
C
348
0
  0
LAYER
  5
283CB
330
21
100
AcDbSymbolTableRecord
100
AcDbLayerTableRecord
  2
Layer 1
 70
     0
 62
     7
  6
Continuous
370
     0
390
9
347
C
348
0
  0
ENDTAB
  0
TABLE
  2
STYLE
  5
24
330
0
100
AcDbSymbolTable
 70
     4
  0
STYLE
  5
25
330
24
100
AcDbSymbolTableRecord
100
AcDbTextStyleTableRecord
  2
Standard
 70
     0
 40
3.0
 41
1.0
 50
0.0
 71
     0
 42
3.0
  3
isocp.shx
  4
whgtxt.shx
  0
STYLE
  5
35
330
24
100
AcDbSymbolTableRecord
100
AcDbTextStyleTableRecord
  2
ROMANS
 70
     0
 40
2.5
 41
1.0
 50
0.0
 71
     0
 42
2.5
  3
romans.shx
  4

  0
STYLE
  5
5C
330
24
100
AcDbSymbolTableRecord
100
AcDbTextStyleTableRecord
  2
굴림
 70
     0
 40
3.0
 41
1.0
 50
0.0
 71
     0
 42
3.0
  3

  4

1001
ACAD
1000
Gulim
1071
    33074
  0
ENDTAB
  0
TABLE
  2
VIEW
  5
2A
330
0
100
AcDbSymbolTable
 70
     0
  0
ENDTAB
  0
TABLE
  2
UCS
  5
2B
330
0
100
AcDbSymbolTable
 70
     0
  0
ENDTAB
  0
TABLE
  2
APPID
  5
32
330
0
100
AcDbSymbolTable
 70
    45
  0
APPID
  5
13
330
32
100
AcDbSymbolTableRecord
100
AcDbRegAppTableRecord
  2
ACAD
 70
     0
  0
APPID
  5
1A
330
32
100
AcDbSymbolTableRecord
100
AcDbRegAppTableRecord
  2
ACAD_PSEXT
 70
     0
  0
APPID
  5
37
330
32
100
AcDbSymbolTableRecord
100
AcDbRegAppTableRecord
  2
ACAD_DSTYLE_DIMJAG
 70
     0
  0
APPID
  5
38
330
32
100
AcDbSymbolTableRecord
100
AcDbRegAppTableRecord
  2
ACAD_DSTYLE_DIMTALN
 70
     0
  0
APPID
  5
36
330
32
100
AcDbSymbolTableRecord
100
AcDbRegAppTableRecord
  2
ACAD_DSTYLE_DIMJOGGED_JOGANGLE_SYMBOL
 70
     0
  0
APPID
  5
183
330
32
100
AcDbSymbolTableRecord
100
AcDbRegAppTableRecord
  2
AcAecLayerStandard
 70
     0
  0
APPID
  5
3DE
330
32
100
AcDbSymbolTableRecord
100
AcDbRegAppTableRecord
  2
ACAD_DSTYLE_DIMRADIAL_EXTENSION
 70
     0
  0
APPID
  5
530
330
32
100
AcDbSymbolTableRecord
100
AcDbRegAppTableRecord
  2
GRADIENTCOLOR1ACI
 70
     0
  0
APPID
  5
531
330
32
100
AcDbSymbolTableRecord
100
AcDbRegAppTableRecord
  2
GRADIENTCOLOR2ACI
 70
     0
  0
APPID
  5
30
330
32
100
AcDbSymbolTableRecord
100
AcDbRegAppTableRecord
  2
ACAD_NAV_VCDISPLAY
 70
     0
  0
APPID
  5
C34
330
32
100
AcDbSymbolTableRecord
100
AcDbRegAppTableRecord
  2
ACAD_MLEADERVER
 70
     0
  0
APPID
  5
C97
330
32
100
AcDbSymbolTableRecord
100
AcDbRegAppTableRecord
  2
ACAD_EXEMPT_FROM_CAD_STANDARDS
 70
     0
  0
APPID
  5
D79
330
32
100
AcDbSymbolTableRecord
100
AcDbRegAppTableRecord
  2
AcadAnnoMonitorAlertIconDisabled
 70
     0
  0
APPID
  5
1A45
330
32
100
AcDbSymbolTableRecord
100
AcDbRegAppTableRecord
  2
GENIUS_GENODEF_13
 70
     0
  0
APPID
  5
1A46
330
32
100
AcDbSymbolTableRecord
100
AcDbRegAppTableRecord
  2
GENIUS_GENOBJ-N-FIL_13
 70
     0
  0
APPID
  5
1A47
330
32
100
AcDbSymbolTableRecord
100
AcDbRegAppTableRecord
  2
ACAD_DSTYLE_DIMBREAK
 70
     0
  0
APPID
  5
1A48
330
32
100
AcDbSymbolTableRecord
100
AcDbRegAppTableRecord
  2
GENIUS_GENOBJ-N-HTC_13
 70
     0
  0
APPID
  5
1A49
330
32
100
AcDbSymbolTableRecord
100
AcDbRegAppTableRecord
  2
GENIUS_GENHATCH_13
 70
     0
  0
APPID
  5
1A4A
330
32
100
AcDbSymbolTableRecord
100
AcDbRegAppTableRecord
  2
GENIUS_GENREC_14
 70
     0
  0
APPID
  5
1A4B
330
32
100
AcDbSymbolTableRecord
100
AcDbRegAppTableRecord
  2
GENIUS_GENOBJ-N-REC_13
 70
     0
  0
APPID
  5
1A4C
330
32
100
AcDbSymbolTableRecord
100
AcDbRegAppTableRecord
  2
ACAUTHENVIRON
 70
     0
  0
APPID
  5
1A4D
330
32
100
AcDbSymbolTableRecord
100
AcDbRegAppTableRecord
  2
AcDbDynamicBlockTrueName
 70
     0
  0
APPID
  5
1A4E
330
32
100
AcDbSymbolTableRecord
100
AcDbRegAppTableRecord
  2
AcDbDynamicBlockGUID
 70
     0
  0
APPID
  5
1A4F
330
32
100
AcDbSymbolTableRecord
100
AcDbRegAppTableRecord
  2
AcDbBlockRepETag
 70
     0
  0
APPID
  5
1A50
330
32
100
AcDbSymbolTableRecord
100
AcDbRegAppTableRecord
  2
DCO15
 70
     0
  0
APPID
  5
1A51
330
32
100
AcDbSymbolTableRecord
100
AcDbRegAppTableRecord
  2
ACAD_DSTYLE_DIMTEXT_FILL
 70
     0
  0
APPID
  5
1A52
330
32
100
AcDbSymbolTableRecord
100
AcDbRegAppTableRecord
  2
ACAD_DSTYLE_DIM_LINETYPE
 70
     0
  0
APPID
  5
1A53
330
32
100
AcDbSymbolTableRecord
100
AcDbRegAppTableRecord
  2
ACAD_DSTYLE_DIM_EXT1_LINETYPE
 70
     0
  0
APPID
  5
1A54
330
32
100
AcDbSymbolTableRecord
100
AcDbRegAppTableRecord
  2
ACAD_DSTYLE_DIM_EXT2_LINETYPE
 70
     0
  0
APPID
  5
1A55
330
32
100
AcDbSymbolTableRecord
100
AcDbRegAppTableRecord
  2
ACAD_DSTYLE_DIMINSPECT
 70
     0
  0
APPID
  5
1A56
330
32
100
AcDbSymbolTableRecord
100
AcDbRegAppTableRecord
  2
AcadAnnotative
 70
     0
  0
APPID
  5
1A57
330
32
100
AcDbSymbolTableRecord
100
AcDbRegAppTableRecord
  2
GENIUS_GENDTOL_13
 70
     0
  0
APPID
  5
1A58
330
32
100
AcDbSymbolTableRecord
100
AcDbRegAppTableRecord
  2
GENIUS_GENFIL_13
 70
     0
  0
APPID
  5
1A59
330
32
100
AcDbSymbolTableRecord
100
AcDbRegAppTableRecord
  2
GENIUS_GENOBJ-N-CHA_13
 70
     0
  0
APPID
  5
1A5A
330
32
100
AcDbSymbolTableRecord
100
AcDbRegAppTableRecord
  2
AcadAnnotativeDecomposition
 70
     0
  0
APPID
  5
1A5B
330
32
100
AcDbSymbolTableRecord
100
AcDbRegAppTableRecord
  2
MCAD_NO_VIS
 70
     0
  0
APPID
  5
1A5C
330
32
100
AcDbSymbolTableRecord
100
AcDbRegAppTableRecord
  2
ACAD_TEMP_GRAPHIC
 70
     0
  0
APPID
  5
1A5D
330
32
100
AcDbSymbolTableRecord
100
AcDbRegAppTableRecord
  2
ACATTRIBSERVICES
 70
     0
  0
APPID
  5
1A5E
330
32
100
AcDbSymbolTableRecord
100
AcDbRegAppTableRecord
  2
DESIGNERASSEMBLIES
 70
     0
  0
APPID
  5
1A5F
330
32
100
AcDbSymbolTableRecord
100
AcDbRegAppTableRecord
  2
GENIUS_GENDIMSH_14
 70
     0
  0
APPID
  5
1A60
330
32
100
AcDbSymbolTableRecord
100
AcDbRegAppTableRecord
  2
ACAD_DSTYLE_DIMARC_LENGTH_SYMBOL
 70
     0
  0
APPID
  5
1A61
330
32
100
AcDbSymbolTableRecord
100
AcDbRegAppTableRecord
  2
ACAD_SPLINE_DATA
 70
     0
  0
APPID
  5
1A62
330
32
100
AcDbSymbolTableRecord
100
AcDbRegAppTableRecord
  2
GENIUS_GENOREF_13
 70
     0
  0
APPID
  5
1A63
330
32
100
AcDbSymbolTableRecord
100
AcDbRegAppTableRecord
  2
ACAD_DSTYLE_DIMANGULAR_EXTENSION
 70
     0
  0
APPID
  5
318CC
330
32
100
AcDbSymbolTableRecord
100
AcDbRegAppTableRecord
  2
HATCHBACKGROUNDCOLOR
 70
     0
  0
ENDTAB
  0
TABLE
  2
DIMSTYLE
  5
33
330
0
100
AcDbSymbolTable
 70
     3
100
AcDbDimStyleTable
 71
     1
340
34
  0
DIMSTYLE
105
34
102
{ACAD_REACTORS
330
3C2EF
102
}
330
33
100
AcDbSymbolTableRecord
100
AcDbDimStyleTableRecord
  2
Standard
 70
     0
 41
2.5
 73
     0
 77
     3
 78
     8
140
2.5
141
-1.0
147
1.0
175
     1
176
     3
177
     3
178
     2
179
     8
271
     8
272
     8
275
     1
340
35
1001
ACAD_DSTYLE_DIMJOGGED_JOGANGLE_SYMBOL
1070
   384
1040
0.7853981633974483
1001
ACAD_DSTYLE_DIMJAG
1070
   388
1040
1.5
1001
ACAD_DSTYLE_DIMTALN
1070
   392
1070
     0
  0
DIMSTYLE
105
1A8
102
{ACAD_REACTORS
330
3C2EA
330
3C2ED
330
3C2EE
330
3EEF8
330
3EEF9
102
}
330
33
100
AcDbSymbolTableRecord
100
AcDbDimStyleTableRecord
  2
Standard$0
 70
     0
 41
2.5
 73
     0
 77
     3
 78
     8
140
2.5
141
-1.0
147
1.0
175
     1
176
     3
177
     3
178
     2
179
     8
271
     8
272
     8
275
     1
340
35
  0
ENDTAB
  0
TABLE
  2
BLOCK_RECORD
  5
1
330
0
100
AcDbSymbolTable
 70
     9
  0
BLOCK_RECORD
  5
2
102
{ACAD_XDICTIONARY
360
3
102
}
330
1
100
AcDbSymbolTableRecord
100
AcDbBlockTableRecord
  2
*Model_Space
340
16
 70
     0
280
     1
281
     0
  0
BLOCK_RECORD
  5
1B
330
1
100
AcDbSymbolTableRecord
100
AcDbBlockTableRecord
  2
*Paper_Space
340
1E
 70
     0
280
     1
281
     0
  0
BLOCK_RECORD
  5
3C3C3
330
1
100
AcDbSymbolTableRecord
100
AcDbBlockTableRecord
  2
*D0
340
0
 70
     0
280
     1
281
     0
  0
BLOCK_RECORD
  5
3C3D9
330
1
100
AcDbSymbolTableRecord
100
AcDbBlockTableRecord
  2
*D1
340
0
 70
     0
280
     1
281
     0
  0
BLOCK_RECORD
  5
3C3E3
330
1
100
AcDbSymbolTableRecord
100
AcDbBlockTableRecord
  2
*D2
340
0
 70
     0
280
     1
281
     0
  0
BLOCK_RECORD
  5
3C3EF
330
1
100
AcDbSymbolTableRecord
100
AcDbBlockTableRecord
  2
*D3
340
0
 70
     0
280
     1
281
     0
  0
BLOCK_RECORD
  5
3ECAE
102
{ACAD_REACTORS
330
3ECA9
102
}
330
1
100
AcDbSymbolTableRecord
100
AcDbBlockTableRecord
  2
*U4
340
0
102
{BLKREFS
331
3ECB7
331
3ECB8
331
3ECB9
331
3ECBA
102
}
 70
     0
280
     1
281
     0
  0
BLOCK_RECORD
  5
3ECB4
102
{ACAD_XDICTIONARY
360
3ECB5
102
}
102
{ACAD_REACTORS
330
3ECA8
102
}
330
1
100
AcDbSymbolTableRecord
100
AcDbBlockTableRecord
  2
*U5
340
0
102
{BLKREFS
331
3EC97
102
}
 70
     0
280
     1
281
     1
  0
BLOCK_RECORD
  5
3EFB1
330
1
100
AcDbSymbolTableRecord
100
AcDbBlockTableRecord
  2
*D6
340
0
 70
     0
280
     1
281
     0
  0
BLOCK_RECORD
  5
3EFBE
330
1
100
AcDbSymbolTableRecord
100
AcDbBlockTableRecord
  2
*D7
340
0
 70
     0
280
     1
281
     0
  0
ENDTAB
  0
ENDSEC
  0
SECTION
  2
BLOCKS
  0
BLOCK
  5
5
330
2
100
AcDbEntity
  8
0
100
AcDbBlockBegin
  2
*Model_Space
 70
     0
 10
0.0
 20
0.0
 30
0.0
  3
*Model_Space
  1

  0
ENDBLK
  5
15
330
2
100
AcDbEntity
  8
0
100
AcDbBlockEnd
  0
BLOCK
  5
1C
330
1B
100
AcDbEntity
 67
     1
  8
0
100
AcDbBlockBegin
  2
*Paper_Space
 70
     0
 10
0.0
 20
0.0
 30
0.0
  3
*Paper_Space
  1

  0
ENDBLK
  5
1D
330
1B
100
AcDbEntity
 67
     1
  8
0
100
AcDbBlockEnd
  0
BLOCK
  5
3C3C4
330
3C3C3
100
AcDbEntity
  8
0
 62
     7
100
AcDbBlockBegin
  2
*D0
 70
     1
 10
0.0
 20
0.0
 30
0.0
  3
*D0
  1

  0
LINE
  5
3F029
330
3C3C3
100
AcDbEntity
  8
0
  6
Continuous
 62
     3
440
 16777216
100
AcDbLine
 10
136.92909736322
 20
65.82880342716044
 30
0.0
 11
159.4349855512341
 21
65.82880342716044
 31
0.0
  0
LINE
  5
3F02A
330
3C3C3
100
AcDbEntity
  8
0
  6
Continuous
 62
     3
440
 16777216
100
AcDbLine
 10
136.92909736322
 20
125.8288034271604
 30
0.0
 11
159.4349855512341
 21
125.8288034271604
 31
0.0
  0
LINE
  5
3F02B
330
3C3C3
100
AcDbEntity
  8
0
  6
Continuous
 62
     3
440
 16777216
100
AcDbLine
 10
158.1849855512341
 20
68.32880342716044
 30
0.0
 11
158.1849855512341
 21
123.3288034271604
 31
0.0
  0
SOLID
  5
3F02C
330
3C3C3
100
AcDbEntity
  8
0
  6
Continuous
 62
     3
440
 16777216
100
AcDbTrace
 10
157.7683188845675
 20
68.32880342716044
 30
0.0
 11
158.6016522179008
 21
68.32880342716044
 31
0.0
 12
158.1849855512341
 22
65.82880342716044
 32
0.0
 13
158.1849855512341
 23
65.82880342716044
 33
0.0
  0
SOLID
  5
3F02D
330
3C3C3
100
AcDbEntity
  8
0
  6
Continuous
 62
     3
440
 16777216
100
AcDbTrace
 10
157.7683188845675
 20
123.3288034271604
 30
0.0
 11
158.6016522179008
 21
123.3288034271604
 31
0.0
 12
158.1849855512341
 22
125.8288034271604
 32
0.0
 13
158.1849855512341
 23
125.8288034271604
 33
0.0
  0
MTEXT
  5
3F02E
330
3C3C3
100
AcDbEntity
  8
0
  6
Continuous
 62
     2
440
 16777216
100
AcDbMText
 10
156.0596902756435
 20
95.82880342716045
 30
0.0
 40
3.0
 41
0.0
 46
0.0
 71
     5
 72
     1
  1
%%C2.36
 11
0.0000000000000001
 21
1.0
 31
0.0
 73
     1
 44
1.0
  0
POINT
  5
3F02F
330
3C3C3
100
AcDbEntity
  8
DEFPOINTS
  6
Continuous
 62
     0
440
 16777216
100
AcDbPoint
 10
136.3040973632201
 20
65.82880342716044
 30
0.0
  0
POINT
  5
3F030
330
3C3C3
100
AcDbEntity
  8
DEFPOINTS
  6
Continuous
 62
     0
440
 16777216
100
AcDbPoint
 10
136.3040973632201
 20
125.8288034271604
 30
0.0
  0
POINT
  5
3F031
330
3C3C3
100
AcDbEntity
  8
DEFPOINTS
  6
Continuous
 62
     0
440
 16777216
100
AcDbPoint
 10
158.1849855512341
 20
125.8288034271604
 30
0.0
  0
ENDBLK
  5
3C3C5
330
3C3C3
100
AcDbEntity
  8
0
 62
     7
100
AcDbBlockEnd
  0
BLOCK
  5
3C3DA
330
3C3D9
100
AcDbEntity
  8
0
 62
     7
100
AcDbBlockBegin
  2
*D1
 70
     1
 10
0.0
 20
0.0
 30
0.0
  3
*D1
  1

  0
LINE
  5
3F032
330
3C3D9
100
AcDbEntity
  8
0
  6
Continuous
 62
     3
440
 16777216
100
AcDbLine
 10
136.92909736322
 20
109.0368034271682
 30
0.0
 11
151.4349855512396
 21
109.0368034271682
 31
0.0
  0
LINE
  5
3F033
330
3C3D9
100
AcDbEntity
  8
0
  6
Continuous
 62
     3
440
 16777216
100
AcDbLine
 10
150.1849855512396
 20
106.5368034271682
 30
0.0
 11
150.1849855512396
 21
85.61715571137563
 31
0.0
  0
SOLID
  5
3F034
330
3C3D9
100
AcDbEntity
  8
0
  6
Continuous
 62
     3
440
 16777216
100
AcDbTrace
 10
149.768318884573
 20
106.5368034271682
 30
0.0
 11
150.6016522179063
 21
106.5368034271682
 31
0.0
 12
150.1849855512396
 22
109.0368034271682
 32
0.0
 13
150.1849855512396
 23
109.0368034271682
 33
0.0
  0
MTEXT
  5
3F035
330
3C3D9
100
AcDbEntity
  8
0
  6
Continuous
 62
     2
440
 16777216
100
AcDbMText
 10
148.0599855512396
 20
90.59215571137565
 30
0.0
 40
3.0
 41
0.0
 46
0.0
 71
     5
 72
     1
  1
%%C1.04
 11
0.0000000000000001
 21
1.0
 31
0.0
 73
     1
 44
1.0
  0
POINT
  5
3F036
330
3C3D9
100
AcDbEntity
  8
DEFPOINTS
  6
Continuous
 62
     0
440
 16777216
100
AcDbPoint
 10
136.3040973632201
 20
82.62080342715263
 30
0.0
  0
POINT
  5
3F037
330
3C3D9
100
AcDbEntity
  8
DEFPOINTS
  6
Continuous
 62
     0
440
 16777216
100
AcDbPoint
 10
136.3040973632201
 20
109.0368034271682
 30
0.0
  0
POINT
  5
3F038
330
3C3D9
100
AcDbEntity
  8
DEFPOINTS
  6
Continuous
 62
     0
440
 16777216
100
AcDbPoint
 10
150.1849855512396
 20
109.0368034271682
 30
0.0
  0
ENDBLK
  5
3C3DB
330
3C3D9
100
AcDbEntity
  8
0
 62
     7
100
AcDbBlockEnd
  0
BLOCK
  5
3C3E4
330
3C3E3
100
AcDbEntity
  8
0
 62
     7
100
AcDbBlockBegin
  2
*D2
 70
     1
 10
0.0
 20
0.0
 30
0.0
  3
*D2
  1

  0
LINE
  5
3F039
330
3C3E3
100
AcDbEntity
  8
0
  6
Continuous
 62
     3
440
 16777216
100
AcDbLine
 10
118.8040973632205
 20
109.9618034271675
 30
0.0
 11
118.8040973632205
 21
138.1744824445591
 31
0.0
  0
LINE
  5
3F03A
330
3C3E3
100
AcDbEntity
  8
0
  6
Continuous
 62
     3
440
 16777216
100
AcDbLine
 10
136.8040973632201
 20
125.9538034271604
 30
0.0
 11
136.8040973632201
 21
138.1744824445591
 31
0.0
  0
LINE
  5
3F03B
330
3C3E3
100
AcDbEntity
  8
0
  6
Continuous
 62
     3
440
 16777216
100
AcDbLine
 10
121.3040973632205
 20
136.9244824445591
 30
0.0
 11
134.3040973632201
 21
136.9244824445591
 31
0.0
  0
SOLID
  5
3F03C
330
3C3E3
100
AcDbEntity
  8
0
  6
Continuous
 62
     3
440
 16777216
100
AcDbTrace
 10
121.3040973632205
 20
137.3411491112257
 30
0.0
 11
121.3040973632205
 21
136.5078157778924
 31
0.0
 12
118.8040973632205
 22
136.9244824445591
 32
0.0
 13
118.8040973632205
 23
136.9244824445591
 33
0.0
  0
SOLID
  5
3F03D
330
3C3E3
100
AcDbEntity
  8
0
  6
Continuous
 62
     3
440
 16777216
100
AcDbTrace
 10
134.3040973632201
 20
137.3411491112257
 30
0.0
 11
134.3040973632201
 21
136.5078157778924
 31
0.0
 12
136.8040973632201
 22
136.9244824445591
 32
0.0
 13
136.8040973632201
 23
136.9244824445591
 33
0.0
  0
MTEXT
  5
3F03E
330
3C3E3
100
AcDbEntity
  8
0
  6
Continuous
 62
     2
440
 16777216
100
AcDbMText
 10
127.8040973632203
 20
139.0494824445591
 30
0.0
 40
3.0
 41
0.0
 46
0.0
 71
     5
 72
     1
  1
.71
 73
     1
 44
1.0
  0
POINT
  5
3F03F
330
3C3E3
100
AcDbEntity
  8
DEFPOINTS
  6
Continuous
 62
     0
440
 16777216
100
AcDbPoint
 10
118.8040973632205
 20
109.3368034271675
 30
0.0
  0
POINT
  5
3F040
330
3C3E3
100
AcDbEntity
  8
DEFPOINTS
  6
Continuous
 62
     0
440
 16777216
100
AcDbPoint
 10
136.8040973632201
 20
125.3288034271604
 30
0.0
  0
POINT
  5
3F041
330
3C3E3
100
AcDbEntity
  8
DEFPOINTS
  6
Continuous
 62
     0
440
 16777216
100
AcDbPoint
 10
136.8040973632201
 20
136.9244824445591
 30
0.0
  0
ENDBLK
  5
3C3E5
330
3C3E3
100
AcDbEntity
  8
0
 62
     7
100
AcDbBlockEnd
  0
BLOCK
  5
3C3F0
330
3C3EF
100
AcDbEntity
  8
0
 62
     7
100
AcDbBlockBegin
  2
*D3
 70
     1
 10
0.0
 20
0.0
 30
0.0
  3
*D3
  1

  0
LINE
  5
3F042
330
3C3EF
100
AcDbEntity
  8
0
  6
Continuous
 62
     3
440
 16777216
100
AcDbLine
 10
256.9562343965596
 20
113.4602753398151
 30
0.0
 11
241.3362025559397
 21
106.3694528822102
 31
0.0
  0
LINE
  5
3F043
330
3C3EF
100
AcDbEntity
  8
0
  6
Continuous
 62
     3
440
 16777216
100
AcDbLine
 10
194.8972228485549
 20
85.28815397211065
 30
0.0
 11
192.6208022746634
 21
84.25475696671359
 31
0.0
  0
MTEXT
  5
3F044
330
3C3EF
100
AcDbEntity
  8
0
  6
Continuous
 62
     2
440
 16777216
100
AcDbMText
 10
251.2745995310611
 20
113.214765146235
 30
0.0
 40
3.0
 41
0.0
 46
0.0
 71
     5
 72
     1
  1
%%C1.811
 11
0.9105682295565884
 21
0.4133588021588268
 31
0.0
 73
     1
 44
1.0
  0
LINE
  5
3F045
330
3C3EF
100
AcDbEntity
  8
0
  6
Continuous
 62
     3
440
 16777216
100
AcDbLine
 10
197.1736434224463
 20
86.32155097750771
 30
0.0
 11
239.0597819820482
 21
105.3360558768131
 31
0.0
  0
SOLID
  5
3F046
330
3C3EF
100
AcDbEntity
  8
0
  6
Continuous
 62
     3
440
 16777216
100
AcDbTrace
 10
194.724990014322
 20
85.66755740109256
 30
0.0
 11
195.0694556827877
 21
84.90875054312875
 31
0.0
 12
197.1736434224463
 22
86.32155097750771
 32
0.0
 13
197.1736434224463
 23
86.32155097750771
 33
0.0
  0
SOLID
  5
3F047
330
3C3EF
100
AcDbEntity
  8
0
  6
Continuous
 62
     3
440
 16777216
100
AcDbTrace
 10
241.1639697217068
 20
106.7488563111921
 30
0.0
 11
241.5084353901725
 21
105.9900494532283
 31
0.0
 12
239.0597819820482
 22
105.3360558768131
 32
0.0
 13
239.0597819820482
 23
105.3360558768131
 33
0.0
  0
POINT
  5
3F048
330
3C3EF
100
AcDbEntity
  8
DEFPOINTS
  6
Continuous
 62
     0
440
 16777216
100
AcDbPoint
 10
239.0597819820482
 20
105.3360558768131
 30
0.0
  0
POINT
  5
3F049
330
3C3EF
100
AcDbEntity
  8
DEFPOINTS
  6
Continuous
 62
     0
440
 16777216
100
AcDbPoint
 10
197.1736434224463
 20
86.32155097750771
 30
0.0
  0
ENDBLK
  5
3C3F1
330
3C3EF
100
AcDbEntity
  8
0
 62
     7
100
AcDbBlockEnd
  0
BLOCK
  5
3ECAF
330
3ECAE
100
AcDbEntity
  8
0
 62
     7
100
AcDbBlockBegin
  2
*U4
 70
     1
 10
0.0
 20
0.0
 30
0.0
  3
*U4
  1

  0
CIRCLE
  5
3ECB0
330
3ECAE
100
AcDbEntity
  8
0
  6
Continuous
 62
     7
100
AcDbCircle
 10
0.0
 20
0.0
 30
0.0
 40
2.549999999999999
  0
CIRCLE
  5
3ECB1
330
3ECAE
100
AcDbEntity
  8
0
  6
Continuous
 62
     7
100
AcDbCircle
 10
0.0
 20
0.0
 30
0.0
 40
3.5
  0
ARC
  5
3ECB2
330
3ECAE
100
AcDbEntity
  8
0
  6
Continuous
 62
     3
100
AcDbCircle
 10
0.0
 20
0.0
 30
0.0
 40
3.0
100
AcDbArc
 50
251.904771502054
 51
164.1406431985433
  0
ENDBLK
  5
3ECB3
330
3ECAE
100
AcDbEntity
  8
0
 62
     7
100
AcDbBlockEnd
  0
BLOCK
  5
3ECB6
330
3ECB4
100
AcDbEntity
  8
0
 62
     7
100
AcDbBlockBegin
  2
*U5
 70
     1
 10
0.0
 20
0.0
 30
0.0
  3
*U5
  1

  0
INSERT
  5
3ECB7
330
3ECB4
100
AcDbEntity
  8
0
  6
ByBlock
347
3E
 62
     0
440
 16777216
370
    -2
380
     1
100
AcDbBlockReference
  2
*U4
 10
3337.414315791387
 20
-851.6397942331115
 30
0.0
  0
INSERT
  5
3ECB8
330
3ECB4
100
AcDbEntity
  8
0
  6
ByBlock
347
3E
 62
     0
440
 16777216
370
    -2
380
     1
100
AcDbBlockReference
  2
*U4
 10
3304.887403856806
 20
-851.6397942331115
 30
0.0
 50
90.00000000000003
  0
INSERT
  5
3ECB9
330
3ECB4
100
AcDbEntity
  8
0
  6
ByBlock
347
3E
 62
     0
440
 16777216
370
    -2
380
     1
100
AcDbBlockReference
  2
*U4
 10
3304.887403856806
 20
-884.1667061676927
 30
0.0
 41
1.0
 42
1.0
 43
1.0
 50
180.0
  0
INSERT
  5
3ECBA
330
3ECB4
100
AcDbEntity
  8
0
  6
ByBlock
347
3E
 62
     0
440
 16777216
370
    -2
380
     1
100
AcDbBlockReference
  2
*U4
 10
3337.414315791387
 20
-884.1667061676927
 30
0.0
 41
1.0
 42
1.0
 43
1.0
 50
270.0
  0
ENDBLK
  5
3ECBB
330
3ECB4
100
AcDbEntity
  8
0
 62
     7
100
AcDbBlockEnd
  0
BLOCK
  5
3EFB2
330
3EFB1
100
AcDbEntity
  8
0
 62
     7
100
AcDbBlockBegin
  2
*D6
 70
     1
 10
0.0
 20
0.0
 30
0.0
  3
*D6
  1

  0
LINE
  5
3F04A
330
3EFB1
100
AcDbEntity
  8
0
  6
Continuous
 62
     3
440
 16777216
100
AcDbLine
 10
81.17909736322008
 20
73.60380342716007
 30
0.0
 11
62.72760680256318
 21
73.60380342716007
 31
0.0
  0
LINE
  5
3F04B
330
3EFB1
100
AcDbEntity
  8
0
  6
Continuous
 62
     3
440
 16777216
100
AcDbLine
 10
81.17909736322008
 20
118.05380342716
 30
0.0
 11
62.72760680256319
 21
118.05380342716
 31
0.0
  0
LINE
  5
3F04C
330
3EFB1
100
AcDbEntity
  8
0
  6
Continuous
 62
     3
440
 16777216
100
AcDbLine
 10
63.97760680256318
 20
76.10380342716007
 30
0.0
 11
63.97760680256319
 21
115.55380342716
 31
0.0
  0
LINE
  5
3F04D
330
3EFB1
100
AcDbEntity
  8
0
  6
Continuous
 62
     3
440
 16777216
100
AcDbLine
 10
63.97760680256319
 20
118.05380342716
 30
0.0
 11
63.97760680256319
 21
143.5383289646335
 31
0.0
  0
SOLID
  5
3F04E
330
3EFB1
100
AcDbEntity
  8
0
  6
Continuous
 62
     3
440
 16777216
100
AcDbTrace
 10
63.56094013589651
 20
76.10380342716007
 30
0.0
 11
64.39427346922984
 21
76.10380342716007
 31
0.0
 12
63.97760680256318
 22
73.60380342716007
 32
0.0
 13
63.97760680256318
 23
73.60380342716007
 33
0.0
  0
SOLID
  5
3F04F
330
3EFB1
100
AcDbEntity
  8
0
  6
Continuous
 62
     3
440
 16777216
100
AcDbTrace
 10
63.56094013589653
 20
115.55380342716
 30
0.0
 11
64.39427346922986
 21
115.55380342716
 31
0.0
 12
63.97760680256319
 22
118.05380342716
 32
0.0
 13
63.97760680256319
 23
118.05380342716
 33
0.0
  0
MTEXT
  5
3F050
330
3EFB1
100
AcDbEntity
  8
0
  6
Continuous
 62
     2
440
 16777216
100
AcDbMText
 10
61.85260680256317
 20
136.6121478622713
 30
0.0
 40
3.0
 41
0.0
 46
0.0
 71
     5
 72
     1
  1
%%C1.7500
 11
0.0000000000000001
 21
1.0
 31
0.0
 73
     1
 44
1.0
  0
POINT
  5
3F051
330
3EFB1
100
AcDbEntity
  8
DEFPOINTS
  6
Continuous
 62
     0
440
 16777216
100
AcDbPoint
 10
81.80409736322008
 20
73.60380342716007
 30
0.0
  0
POINT
  5
3F052
330
3EFB1
100
AcDbEntity
  8
DEFPOINTS
  6
Continuous
 62
     0
440
 16777216
100
AcDbPoint
 10
81.80409736322008
 20
118.05380342716
 30
0.0
  0
POINT
  5
3F053
330
3EFB1
100
AcDbEntity
  8
DEFPOINTS
  6
Continuous
 62
     0
440
 16777216
100
AcDbPoint
 10
63.97760680256319
 20
118.05380342716
 30
0.0
  0
ENDBLK
  5
3EFB3
330
3EFB1
100
AcDbEntity
  8
0
 62
     7
100
AcDbBlockEnd
  0
BLOCK
  5
3EFBF
330
3EFBE
100
AcDbEntity
  8
0
 62
     7
100
AcDbBlockBegin
  2
*D7
 70
     1
 10
0.0
 20
0.0
 30
0.0
  3
*D7
  1

  0
LINE
  5
3F714
330
3EFBE
100
AcDbEntity
  8
0
  6
Continuous
 62
     3
440
 16777216
100
AcDbLine
 10
83.17909736322008
 20
64.32880342716043
 30
0.0
 11
54.72760680256295
 21
64.32880342716043
 31
0.0
  0
LINE
  5
3F715
330
3EFBE
100
AcDbEntity
  8
0
  6
Continuous
 62
     3
440
 16777216
100
AcDbLine
 10
83.17909736322008
 20
127.3288034271601
 30
0.0
 11
54.72760680256296
 21
127.3288034271601
 31
0.0
  0
LINE
  5
3F716
330
3EFBE
100
AcDbEntity
  8
0
  6
Continuous
 62
     3
440
 16777216
100
AcDbLine
 10
55.97760680256295
 20
66.82880342716043
 30
0.0
 11
55.97760680256296
 21
124.8288034271601
 31
0.0
  0
LINE
  5
3F717
330
3EFBE
100
AcDbEntity
  8
0
  6
Continuous
 62
     3
440
 16777216
100
AcDbLine
 10
55.97760680256296
 20
127.3288034271601
 30
0.0
 11
55.97760680256296
 21
142.6842069239019
 31
0.0
  0
SOLID
  5
3F718
330
3EFBE
100
AcDbEntity
  8
0
  6
Continuous
 62
     3
440
 16777216
100
AcDbTrace
 10
55.56094013589628
 20
66.82880342716043
 30
0.0
 11
56.39427346922961
 21
66.82880342716043
 31
0.0
 12
55.97760680256295
 22
64.32880342716043
 32
0.0
 13
55.97760680256295
 23
64.32880342716043
 33
0.0
  0
SOLID
  5
3F719
330
3EFBE
100
AcDbEntity
  8
0
  6
Continuous
 62
     3
440
 16777216
100
AcDbTrace
 10
55.5609401358963
 20
124.8288034271601
 30
0.0
 11
56.39427346922963
 21
124.8288034271601
 31
0.0
 12
55.97760680256296
 22
127.3288034271601
 32
0.0
 13
55.97760680256296
 23
127.3288034271601
 33
0.0
  0
MTEXT
  5
3F71A
330
3EFBE
100
AcDbEntity
  8
0
  6
Continuous
 62
     2
440
 16777216
100
AcDbMText
 10
53.85231152697239
 20
136.3580258215397
 30
0.0
 40
3.0
 41
0.0
 46
0.0
 71
     5
 72
     1
  1
%%C2.480
 11
0.0000000000000001
 21
1.0
 31
0.0
 73
     1
 44
1.0
  0
POINT
  5
3F71B
330
3EFBE
100
AcDbEntity
  8
DEFPOINTS
  6
Continuous
 62
     0
440
 16777216
100
AcDbPoint
 10
83.80409736322008
 20
64.32880342716043
 30
0.0
  0
POINT
  5
3F71C
330
3EFBE
100
AcDbEntity
  8
DEFPOINTS
  6
Continuous
 62
     0
440
 16777216
100
AcDbPoint
 10
83.80409736322008
 20
127.3288034271601
 30
0.0
  0
POINT
  5
3F71D
330
3EFBE
100
AcDbEntity
  8
DEFPOINTS
  6
Continuous
 62
     0
440
 16777216
100
AcDbPoint
 10
55.97760680256296
 20
127.3288034271601
 30
0.0
  0
ENDBLK
  5
3EFC0
330
3EFBE
100
AcDbEntity
  8
0
 62
     7
100
AcDbBlockEnd
  0
ENDSEC
  0
SECTION
  2
ENTITIES
  0
DIMENSION
  5
3C2EA
330
2
100
AcDbEntity
  8
0
  6
Continuous
 62
     7
100
AcDbDimension
280
     0
  2
*D0
 10
158.1849855512341
 20
125.8288034271604
 30
0.0
 11
156.0596902756435
 21
95.82880342716045
 31
0.0
 70
    32
  1
%%C2.36
 71
     5
 42
60.0
 73
     0
 74
     0
 75
     0
  3
Standard$0
100
AcDbAlignedDimension
 13
136.3040973632201
 23
65.82880342716044
 33
0.0
 14
136.3040973632201
 24
125.8288034271604
 34
0.0
 50
90.0
100
AcDbRotatedDimension
1001
ACAD
1000
DSTYLE
1002
{
1070
    42
1040
0.625
1070
    43
1040
3.75
1070
    44
1040
1.25
1070
    48
1040
0.000000001
1070
    74
1070
     0
1070
    77
1070
     1
1070
    90
1070
     1
1070
   140
1040
3.0
1070
   141
1040
-0.5
1070
   143
1040
0.03937007874016
1070
   146
1040
0.7
1070
   147
1040
0.625
1070
   171
1070
     3
1070
   172
1070
     1
1070
   175
1070
     0
1070
   274
1070
     3
1070
   283
1070
     0
1070
   284
1070
     8
1070
   340
1005
25
1070
   371
1070
    -1
1070
   372
1070
    -1
1002
}
  0
DIMENSION
  5
3C2ED
330
2
100
AcDbEntity
  8
0
  6
Continuous
 62
     7
100
AcDbDimension
280
     0
  2
*D1
 10
150.1849855512396
 20
109.0368034271682
 30
0.0
 11
150.1849855512396
 21
90.59215571137565
 31
0.0
 70
   160
  1
%%C1.04
 71
     5
 42
26.41600000001563
 73
     0
 74
     0
 75
     0
  3
Standard$0
100
AcDbAlignedDimension
 13
136.3040973632201
 23
82.62080342715263
 33
0.0
 14
136.3040973632201
 24
109.0368034271682
 34
0.0
 50
90.0
100
AcDbRotatedDimension
1001
ACAD
1000
DSTYLE
1002
{
1070
    42
1040
0.625
1070
    43
1040
3.75
1070
    44
1040
1.25
1070
    48
1040
0.000000001
1070
    74
1070
     0
1070
    75
1070
     1
1070
    77
1070
     1
1070
    90
1070
     1
1070
   140
1040
3.0
1070
   141
1040
-0.5
1070
   143
1040
0.03937007874016
1070
   146
1040
0.7
1070
   147
1040
0.625
1070
   171
1070
     3
1070
   172
1070
     1
1070
   175
1070
     0
1070
   274
1070
     3
1070
   281
1070
     1
1070
   283
1070
     0
1070
   284
1070
     8
1070
   340
1005
25
1070
   371
1070
    -1
1070
   372
1070
    -1
1002
}
  0
DIMENSION
  5
3C2EE
330
2
100
AcDbEntity
  8
0
  6
Continuous
 62
     7
100
AcDbDimension
280
     0
  2
*D2
 10
136.8040973632201
 20
136.9244824445591
 30
0.0
 11
127.8040973632203
 21
139.0494824445591
 31
0.0
 70
    32
  1
.71
 71
     5
 42
17.99999999999954
 73
     0
 74
     0
 75
     0
  3
Standard$0
100
AcDbAlignedDimension
 13
118.8040973632205
 23
109.3368034271675
 33
0.0
 14
136.8040973632201
 24
125.3288034271604
 34
0.0
100
AcDbRotatedDimension
1001
ACAD
1000
DSTYLE
1002
{
1070
    42
1040
0.625
1070
    43
1040
3.75
1070
    44
1040
1.25
1070
    48
1040
0.000000001
1070
    74
1070
     0
1070
    77
1070
     1
1070
    90
1070
     1
1070
   140
1040
3.0
1070
   141
1040
-0.5
1070
   143
1040
0.03937007874016
1070
   146
1040
0.7
1070
   147
1040
0.625
1070
   171
1070
     3
1070
   172
1070
     1
1070
   175
1070
     0
1070
   274
1070
     3
1070
   283
1070
     0
1070
   284
1070
     8
1070
   340
1005
25
1070
   371
1070
    -1
1070
   372
1070
    -1
1002
}
  0
DIMENSION
  5
3C2EF
330
2
100
AcDbEntity
  8
0
  6
Continuous
 62
     7
100
AcDbDimension
280
     0
  2
*D3
 10
197.1736434224463
 20
86.32155097750771
 30
0.0
 11
252.1529869856486
 21
111.2798076584273
 31
0.0
 70
   163
  1
%%C1.811
 71
     5
 42
45.99999999999863
 73
     0
 74
     0
 75
     0
  3
Standard
100
AcDbDiametricDimension
 15
239.0597819820482
 25
105.3360558768131
 35
0.0
 40
0.0
1001
ACAD_DSTYLE_DIMRADIAL_EXTENSION
1070
   387
1070
     1
1070
   388
1040
0.0
1070
   390
1040
0.0
1001
ACAD
1000
DSTYLE
1002
{
1070
    42
1040
0.625
1070
    43
1040
3.75
1070
    44
1040
1.25
1070
    48
1040
0.000000001
1070
    74
1070
     0
1070
    77
1070
     1
1070
    90
1070
     1
1070
   140
1040
3.0
1070
   141
1040
-0.5
1070
   143
1040
0.03937007874016
1070
   146
1040
0.7
1070
   147
1040
0.625
1070
   171
1070
     3
1070
   172
1070
     1
1070
   175
1070
     0
1070
   274
1070
     3
1070
   283
1070
     0
1070
   284
1070
     8
1070
   288
1070
     1
1070
   340
1005
25
1070
   371
1070
    -1
1070
   372
1070
    -1
1002
}
  0
LEADER
  5
3C2F5
330
2
100
AcDbEntity
  8
0
  6
Continuous
 62
     7
100
AcDbLeader
  3
Standard
 73
     0
 40
3.0
 41
15.0023622047244
 76
     3
 10
199.9200874777449
 20
115.009939401391
 30
0.0
 10
192.3716510489326
 20
130.3808025972399
 30
0.0
 10
191.5760605792407
 20
130.3808025972399
 30
0.0
340
3C2F6
213
0.0
223
1.5
233
0.0
1001
ACAD
1000
DSTYLE
1002
{
1070
    42
1040
0.625
1070
    43
1040
3.75
1070
    44
1040
1.25
1070
    48
1040
0.000000001
1070
    74
1070
     0
1070
    77
1070
     0
1070
    90
1070
     1
1070
   140
1040
3.0
1070
   141
1040
-0.5
1070
   143
1040
0.03937007874016
1070
   146
1040
0.7
1070
   147
1040
0.625
1070
   171
1070
     3
1070
   172
1070
     1
1070
   175
1070
     0
1070
   179
1070
     0
1070
   274
1070
     3
1070
   283
1070
     0
1070
   284
1070
     8
1070
   340
1005
25
1070
   371
1070
    -1
1070
   372
1070
    -1
1002
}
  0
MTEXT
  5
3C2F6
102
{ACAD_REACTORS
330
3C2F5
102
}
330
2
100
AcDbEntity
  8
0
  6
Continuous
 62
     2
100
AcDbMText
 10
190.9510605792407
 20
128.8808025972399
 30
0.0
 40
3.0
 41
3.0
 46
0.0
 71
     9
 72
     1
  1
4-M6*1.0
 73
     1
 44
1.0
  0
LEADER
  5
3C2F7
330
2
100
AcDbEntity
  8
0
  6
Continuous
 62
     7
100
AcDbLeader
  3
Standard
 73
     0
 40
3.0
 41
15.0023622047244
 76
     3
 10
218.1167127022501
 20
118.8288034271505
 30
0.0
 10
211.3858575255454
 20
138.1996666229993
 30
0.0
 10
210.5902670558536
 20
138.1996666229993
 30
0.0
340
3C2F8
213
0.0
223
1.5
233
0.0
1001
ACAD
1000
DSTYLE
1002
{
1070
    42
1040
0.625
1070
    43
1040
3.75
1070
    44
1040
1.25
1070
    48
1040
0.000000001
1070
    74
1070
     0
1070
    77
1070
     0
1070
    90
1070
     1
1070
   140
1040
3.0
1070
   141
1040
-0.5
1070
   143
1040
0.03937007874016
1070
   146
1040
0.7
1070
   147
1040
0.625
1070
   171
1070
     3
1070
   172
1070
     1
1070
   175
1070
     0
1070
   179
1070
     0
1070
   274
1070
     3
1070
   283
1070
     0
1070
   284
1070
     8
1070
   340
1005
25
1070
   371
1070
    -1
1070
   372
1070
    -1
1002
}
  0
MTEXT
  5
3C2F8
102
{ACAD_REACTORS
330
3C2F7
102
}
330
2
100
AcDbEntity
  8
0
  6
Continuous
 62
     2
100
AcDbMText
 10
209.9652670558536
 20
136.6996666229993
 30
0.0
 40
3.0
 41
3.0
 46
0.0
 71
     9
 72
     1
  1
4-M6*1.0
 73
     1
 44
1.0
  0
LWPOLYLINE
  5
3C9CD
330
2
100
AcDbEntity
  8
0
 62
     0
100
AcDbPolyline
 90
        4
 70
     1
 43
0.0
 10
0.5
 20
0.5
 10
0.5
 20
185.9080841645593
 10
266.19025
 20
185.9080841645593
 10
266.19025
 20
0.5
  0
LINE
  5
3C9CE
330
2
100
AcDbEntity
  8
0
  6
Continuous
 62
     7
100
AcDbLine
 10
199.7676874999999
 20
-2.740124999999977
 30
0.0
 11
199.7676874999999
 21
0.5
 31
0.0
  0
LINE
  5
3C9CF
330
2
100
AcDbEntity
  8
0
  6
Continuous
 62
     7
100
AcDbLine
 10
196.5275624999998
 20
0.5
 30
0.0
 11
196.5275624999998
 21
26.57301183564113
 31
0.0
  0
LINE
  5
3C9D0
330
2
100
AcDbEntity
  8
0
  6
Continuous
 62
     7
100
AcDbLine
 10
66.92256250000003
 20
-2.740124999999977
 30
0.0
 11
66.92256250000003
 21
0.5
 31
0.0
  0
LINE
  5
3C9D1
330
2
100
AcDbEntity
  8
0
  6
Continuous
 62
     7
100
AcDbLine
 10
199.7676874999999
 20
189.1482091645592
 30
0.0
 11
199.7676874999999
 21
185.9080841645593
 31
0.0
  0
LINE
  5
3C9D2
330
2
100
AcDbEntity
  8
0
  6
Continuous
 62
     7
100
AcDbLine
 10
66.92256250000003
 20
189.1482091645592
 30
0.0
 11
66.92256250000003
 21
185.9080841645593
 31
0.0
  0
LINE
  5
3C9D3
330
2
100
AcDbEntity
  8
0
  6
Continuous
 62
     7
100
AcDbLine
 10
-2.740124999999977
 20
46.85202104113983
 30
0.0
 11
0.5
 21
46.85202104113983
 31
0.0
  0
LINE
  5
3C9D4
330
2
100
AcDbEntity
  8
0
  6
Continuous
 62
     7
100
AcDbLine
 10
-2.740124999999977
 20
139.5560631234194
 30
0.0
 11
0.5
 21
139.5560631234194
 31
0.0
  0
LINE
  5
3C9D5
330
2
100
AcDbEntity
  8
0
  6
Continuous
 62
     7
100
AcDbLine
 10
269.430375
 20
46.85202104113983
 30
0.0
 11
266.19025
 21
46.85202104113983
 31
0.0
  0
LINE
  5
3C9D6
330
2
100
AcDbEntity
  8
0
  6
Continuous
 62
     7
100
AcDbLine
 10
269.430375
 20
139.5560631234194
 30
0.0
 11
266.19025
 21
139.5560631234194
 31
0.0
  0
LINE
  5
3C9D7
330
2
100
AcDbEntity
  8
0
  6
Continuous
 62
     7
100
AcDbLine
 10
196.5275624999998
 20
17.88200789042742
 30
0.0
 11
266.19025
 21
17.88200789042742
 31
0.0
  0
LINE
  5
3C9D8
330
2
100
AcDbEntity
  8
0
  6
Continuous
 62
     7
100
AcDbLine
 10
196.5275624999998
 20
26.57301183564113
 30
0.0
 11
266.19025
 21
26.57301183564113
 31
0.0
  0
LINE
  5
3C9D9
330
2
100
AcDbEntity
  8
0
  6
Continuous
 62
     7
100
AcDbLine
 10
196.5275624999998
 20
9.191003945213708
 30
0.0
 11
266.19025
 21
9.191003945213708
 31
0.0
  0
LINE
  5
3C9DA
330
2
100
AcDbEntity
  8
0
  6
Continuous
 62
     7
100
AcDbLine
 10
266.19025
 20
93.20404208227961
 30
0.0
 11
269.430375
 21
93.20404208227961
 31
0.0
  0
LINE
  5
3C9DB
330
2
100
AcDbEntity
  8
0
  6
Continuous
 62
     7
100
AcDbLine
 10
267.8103125
 20
92.10239958227958
 30
0.0
 11
267.8103125
 21
94.30568458227964
 31
0.0
  0
LINE
  5
3C9DC
330
2
100
AcDbEntity
  8
0
  6
Continuous
 62
     7
100
AcDbLine
 10
267.8103125
 20
92.10239958227958
 30
0.0
 11
266.19025
 21
93.20404208227961
 31
0.0
  0
LINE
  5
3C9DD
330
2
100
AcDbEntity
  8
0
  6
Continuous
 62
     7
100
AcDbLine
 10
266.19025
 20
93.20404208227961
 30
0.0
 11
267.8103125
 21
94.30568458227964
 31
0.0
  0
LINE
  5
3C9DE
330
2
100
AcDbEntity
  8
0
  6
Continuous
 62
     7
100
AcDbLine
 10
0.5
 20
93.20404208227961
 30
0.0
 11
-2.740124999999977
 21
93.20404208227961
 31
0.0
  0
LINE
  5
3C9DF
330
2
100
AcDbEntity
  8
0
  6
Continuous
 62
     7
100
AcDbLine
 10
-1.120062500000017
 20
92.10239958227958
 30
0.0
 11
-1.120062500000017
 21
94.30568458227964
 31
0.0
  0
LINE
  5
3C9E0
330
2
100
AcDbEntity
  8
0
  6
Continuous
 62
     7
100
AcDbLine
 10
-1.120062500000017
 20
92.10239958227958
 30
0.0
 11
0.5
 21
93.20404208227961
 31
0.0
  0
LINE
  5
3C9E1
330
2
100
AcDbEntity
  8
0
  6
Continuous
 62
     7
100
AcDbLine
 10
0.5
 20
93.20404208227961
 30
0.0
 11
-1.120062500000017
 21
94.30568458227964
 31
0.0
  0
LINE
  5
3C9E2
330
2
100
AcDbEntity
  8
0
  6
Continuous
 62
     7
100
AcDbLine
 10
133.345125
 20
185.9080841645593
 30
0.0
 11
133.345125
 21
189.1482091645592
 31
0.0
  0
LINE
  5
3C9E3
330
2
100
AcDbEntity
  8
0
  6
Continuous
 62
     7
100
AcDbLine
 10
132.2434824999999
 20
187.5281466645593
 30
0.0
 11
134.4467674999999
 21
187.5281466645593
 31
0.0
  0
LINE
  5
3C9E4
330
2
100
AcDbEntity
  8
0
  6
Continuous
 62
     7
100
AcDbLine
 10
132.2434824999999
 20
187.5281466645593
 30
0.0
 11
133.345125
 21
185.9080841645593
 31
0.0
  0
LINE
  5
3C9E5
330
2
100
AcDbEntity
  8
0
  6
Continuous
 62
     7
100
AcDbLine
 10
133.345125
 20
185.9080841645593
 30
0.0
 11
134.4467674999999
 21
187.5281466645593
 31
0.0
  0
LINE
  5
3C9E6
330
2
100
AcDbEntity
  8
0
  6
Continuous
 62
     7
100
AcDbLine
 10
133.345125
 20
0.5
 30
0.0
 11
133.345125
 21
-2.740124999999977
 31
0.0
  0
LINE
  5
3C9E7
330
2
100
AcDbEntity
  8
0
  6
Continuous
 62
     7
100
AcDbLine
 10
132.2434824999999
 20
-1.120062500000017
 30
0.0
 11
134.4467674999999
 21
-1.120062500000017
 31
0.0
  0
LINE
  5
3C9E8
330
2
100
AcDbEntity
  8
0
  6
Continuous
 62
     7
100
AcDbLine
 10
132.2434824999999
 20
-1.120062500000017
 30
0.0
 11
133.345125
 21
0.5
 31
0.0
  0
LINE
  5
3C9E9
330
2
100
AcDbEntity
  8
0
  6
Continuous
 62
     7
100
AcDbLine
 10
133.345125
 20
0.5
 30
0.0
 11
134.4467674999999
 21
-1.120062500000017
 31
0.0
  0
TEXT
  5
3C9EA
330
2
100
AcDbEntity
  8
0
 62
     2
100
AcDbText
 10
33.03277075827145
 20
-2.125273103603035
 30
0.0
 40
1.814469999999999
  1
4
  7
굴림
100
AcDbText
  0
TEXT
  5
3C9EB
330
2
100
AcDbEntity
  8
0
 62
     2
100
AcDbText
 10
99.51691577836767
 20
-2.125273103603035
 30
0.0
 40
1.814469999999999
  1
3
  7
굴림
100
AcDbText
  0
TEXT
  5
3C9EC
330
2
100
AcDbEntity
  8
0
 62
     2
100
AcDbText
 10
165.8535581136316
 20
-2.125273103603035
 30
0.0
 40
1.814469999999999
  1
2
  7
굴림
100
AcDbText
  0
TEXT
  5
3C9ED
330
2
100
AcDbEntity
  8
0
 62
     2
100
AcDbText
 10
232.4787020852428
 20
-2.125273103603035
 30
0.0
 40
1.814469999999999
  1
1
  7
굴림
100
AcDbText
  0
TEXT
  5
3C9EE
330
2
100
AcDbEntity
  8
0
 62
     2
100
AcDbText
 10
33.03277075827145
 20
186.9411548928954
 30
0.0
 40
1.814469999999999
  1
4
  7
굴림
100
AcDbText
  0
TEXT
  5
3C9EF
330
2
100
AcDbEntity
  8
0
 62
     2
100
AcDbText
 10
99.51691577836767
 20
186.9411548928954
 30
0.0
 40
1.814469999999999
  1
3
  7
굴림
100
AcDbText
  0
TEXT
  5
3C9F0
330
2
100
AcDbEntity
  8
0
 62
     2
100
AcDbText
 10
165.8535581136316
 20
186.9411548928954
 30
0.0
 40
1.814469999999999
  1
2
  7
굴림
100
AcDbText
  0
TEXT
  5
3C9F1
330
2
100
AcDbEntity
  8
0
 62
     2
100
AcDbText
 10
232.4787020852428
 20
186.9411548928954
 30
0.0
 40
1.814469999999999
  1
1
  7
굴림
100
AcDbText
  0
TEXT
  5
3C9F2
330
2
100
AcDbEntity
  8
0
 62
     2
100
AcDbText
 10
-2.119437416200298
 20
23.07183887467312
 30
0.0
 40
1.814469999999999
  1
A
  7
굴림
100
AcDbText
  0
TEXT
  5
3C9F3
330
2
100
AcDbEntity
  8
0
 62
     2
100
AcDbText
 10
-2.119437416200298
 20
69.03932239472533
 30
0.0
 40
1.814469999999999
  1
B
  7
굴림
100
AcDbText
  0
TEXT
  5
3C9F4
330
2
100
AcDbEntity
  8
0
 62
     2
100
AcDbText
 10
-2.119437416200298
 20
115.445442045324
 30
0.0
 40
1.814469999999999
  1
C
  7
굴림
100
AcDbText
  0
TEXT
  5
3C9F5
330
2
100
AcDbEntity
  8
0
 62
     2
100
AcDbText
 10
-2.119437416200298
 20
162.1373210017123
 30
0.0
 40
1.814469999999999
  1
D
  7
굴림
100
AcDbText
  0
TEXT
  5
3C9F6
330
2
100
AcDbEntity
  8
0
 62
     2
100
AcDbText
 10
267.1608767462983
 20
23.07183887467312
 30
0.0
 40
1.814469999999999
  1
A
  7
굴림
100
AcDbText
  0
TEXT
  5
3C9F7
330
2
100
AcDbEntity
  8
0
 62
     2
100
AcDbText
 10
267.1608767462983
 20
69.03932239472533
 30
0.0
 40
1.814469999999999
  1
B
  7
굴림
100
AcDbText
  0
TEXT
  5
3C9F8
330
2
100
AcDbEntity
  8
0
 62
     2
100
AcDbText
 10
267.1608767462983
 20
115.445442045324
 30
0.0
 40
1.814469999999999
  1
C
  7
굴림
100
AcDbText
  0
TEXT
  5
3C9F9
330
2
100
AcDbEntity
  8
0
 62
     2
100
AcDbText
 10
267.1608767462983
 20
162.1373210017123
 30
0.0
 40
1.814469999999999
  1
D
  7
굴림
100
AcDbText
  0
HATCH
  5
3C9FA
330
2
100
AcDbEntity
  8
0
  6
Continuous
 62
     0
100
AcDbHatch
 10
0.0
 20
0.0
 30
0.0
210
0.0
220
0.0
230
1.0
  2
SOLID
 70
     1
 71
     1
 91
        1
 92
        5
 93
       13
 72
     4
 94
        3
 73
     0
 74
     0
 95
        8
 96
        4
 40
1.0
 40
1.0
 40
1.0
 40
1.0
 40
2.0
 40
2.0
 40
2.0
 40
2.0
 10
217.2919402101582
 20
22.06683419947592
 10
217.2919402101582
 20
22.06683419947592
 10
216.5511997120237
 20
18.67468977108518
 10
216.5511997120237
 20
18.67468977108518
 97
        0
 72
     4
 94
        3
 73
     0
 74
     0
 95
        8
 96
        4
 40
0.0
 40
0.0
 40
0.0
 40
0.0
 40
1.0
 40
1.0
 40
1.0
 40
1.0
 10
216.5511997120237
 20
18.67468977108518
 10
216.5511997120237
 20
18.67468977108518
 10
218.180501275468
 20
18.67468977108518
 10
218.180501275468
 20
18.67468977108518
 97
        0
 72
     4
 94
        3
 73
     0
 74
     0
 95
        8
 96
        4
 40
12.0
 40
12.0
 40
12.0
 40
12.0
 40
13.0
 40
13.0
 40
13.0
 40
13.0
 10
218.180501275468
 20
18.67468977108518
 10
218.180501275468
 20
18.67468977108518
 10
219.0324878836319
 20
23.90349000964176
 10
219.0324878836319
 20
23.90349000964176
 97
        0
 72
     4
 94
        3
 73
     0
 74
     0
 95
        8
 96
        4
 40
11.0
 40
11.0
 40
11.0
 40
11.0
 40
12.0
 40
12.0
 40
12.0
 40
12.0
 10
219.0324878836319
 20
23.90349000964176
 10
219.0324878836319
 20
23.90349000964176
 10
217.2769139406475
 20
23.90349000964176
 10
217.2769139406475
 20
23.90349000964176
 97
        0
 72
     4
 94
        3
 73
     0
 74
     0
 95
        8
 96
        4
 40
10.0
 40
10.0
 40
10.0
 40
10.0
 40
11.0
 40
11.0
 40
11.0
 40
11.0
 10
217.2769139406475
 20
23.90349000964176
 10
217.2769139406475
 20
23.90349000964176
 10
215.469739271007
 20
21.02999287232188
 10
215.469739271007
 20
21.02999287232188
 97
        0
 72
     4
 94
        3
 73
     0
 74
     0
 95
        8
 96
        4
 40
9.0
 40
9.0
 40
9.0
 40
9.0
 40
10.0
 40
10.0
 40
10.0
 40
10.0
 10
215.469739271007
 20
21.02999287232188
 10
215.469739271007
 20
21.02999287232188
 10
215.1515738280522
 20
23.90349000964176
 10
215.1515738280522
 20
23.90349000964176
 97
        0
 72
     4
 94
        3
 73
     0
 74
     0
 95
        8
 96
        4
 40
8.0
 40
8.0
 40
8.0
 40
8.0
 40
9.0
 40
9.0
 40
9.0
 40
9.0
 10
215.1515738280522
 20
23.90349000964176
 10
215.1515738280522
 20
23.90349000964176
 10
213.4255926858178
 20
23.90349000964176
 10
213.4255926858178
 20
23.90349000964176
 97
        0
 72
     4
 94
        3
 73
     0
 74
     0
 95
        8
 96
        4
 40
7.0
 40
7.0
 40
7.0
 40
7.0
 40
8.0
 40
8.0
 40
8.0
 40
8.0
 10
213.4255926858178
 20
23.90349000964176
 10
213.4255926858178
 20
23.90349000964176
 10
211.5223130512451
 20
18.67468977108518
 10
211.5223130512451
 20
18.67468977108518
 97
        0
 72
     4
 94
        3
 73
     0
 74
     0
 95
        8
 96
        4
 40
6.0
 40
6.0
 40
6.0
 40
6.0
 40
7.0
 40
7.0
 40
7.0
 40
7.0
 10
211.5223130512451
 20
18.67468977108518
 10
211.5223130512451
 20
18.67468977108518
 10
213.1145805030982
 20
18.67468977108518
 10
213.1145805030982
 20
18.67468977108518
 97
        0
 72
     4
 94
        3
 73
     0
 74
     0
 95
        8
 96
        4
 40
5.0
 40
5.0
 40
5.0
 40
5.0
 40
6.0
 40
6.0
 40
6.0
 40
6.0
 10
213.1145805030982
 20
18.67468977108518
 10
213.1145805030982
 20
18.67468977108518
 10
214.188628394701
 20
22.14078757943872
 10
214.188628394701
 20
22.14078757943872
 97
        0
 72
     4
 94
        3
 73
     0
 74
     0
 95
        8
 96
        4
 40
4.0
 40
4.0
 40
4.0
 40
4.0
 40
5.0
 40
5.0
 40
5.0
 40
5.0
 10
214.188628394701
 20
22.14078757943872
 10
214.188628394701
 20
22.14078757943872
 10
214.5811501905731
 20
18.67468977108518
 10
214.5811501905731
 20
18.67468977108518
 97
        0
 72
     4
 94
        3
 73
     0
 74
     0
 95
        8
 96
        4
 40
3.0
 40
3.0
 40
3.0
 40
3.0
 40
4.0
 40
4.0
 40
4.0
 40
4.0
 10
214.5811501905731
 20
18.67468977108518
 10
214.5811501905731
 20
18.67468977108518
 10
215.0996563311084
 20
18.67468977108518
 10
215.0996563311084
 20
18.67468977108518
 97
        0
 72
     4
 94
        3
 73
     0
 74
     0
 95
        8
 96
        4
 40
2.0
 40
2.0
 40
2.0
 40
2.0
 40
3.0
 40
3.0
 40
3.0
 40
3.0
 10
215.0996563311084
 20
18.67468977108518
 10
215.0996563311084
 20
18.67468977108518
 10
217.2919402101582
 20
22.06683419947592
 10
217.2919402101582
 20
22.06683419947592
 97
        0
 97
       13
330
3CA07
330
3CA06
330
3CA05
330
3CA04
330
3CA03
330
3CA02
330
3CA01
330
3CA00
330
3C9FF
330
3C9FE
330
3C9FD
330
3C9FC
330
3C9FB
 75
     1
 76
     1
 47
0.0269459378258844
 98
        1
 10
217.3864434843398
 20
20.45240664472908
450
        0
451
        0
460
0.0
461
0.0
452
        0
462
1.0
453
        2
463
0.0
 63
     5
421
      255
463
1.0
 63
     2
421
 16776960
470
LINEAR
1001
GRADIENTCOLOR1ACI
1070
     5
1001
GRADIENTCOLOR2ACI
1070
     2
1001
ACAD
1010
0.0
1020
0.0
1030
0.0
  0
SPLINE
  5
3C9FB
102
{ACAD_REACTORS
330
3C9FA
102
}
330
2
100
AcDbEntity
  8
Layer 1
100
AcDbSpline
210
0.0
220
0.0
230
1.0
 70
    24
 71
     3
 72
     8
 73
     4
 74
     0
 42
0.000000001
 43
0.0000000001
 40
0.0
 40
0.0
 40
0.0
 40
0.0
 40
1.0
 40
1.0
 40
1.0
 40
1.0
 10
218.180501275468
 20
18.67468977108518
 30
0.0
 10
218.180501275468
 20
18.67468977108518
 30
0.0
 10
216.5511997120237
 20
18.67468977108518
 30
0.0
 10
216.5511997120237
 20
18.67468977108518
 30
0.0
  0
SPLINE
  5
3C9FC
102
{ACAD_REACTORS
330
3C9FA
102
}
330
2
100
AcDbEntity
  8
Layer 1
100
AcDbSpline
210
0.0
220
0.0
230
1.0
 70
    24
 71
     3
 72
     8
 73
     4
 74
     0
 42
0.000000001
 43
0.0000000001
 40
1.0
 40
1.0
 40
1.0
 40
1.0
 40
2.0
 40
2.0
 40
2.0
 40
2.0
 10
216.5511997120237
 20
18.67468977108518
 30
0.0
 10
216.5511997120237
 20
18.67468977108518
 30
0.0
 10
217.2919402101582
 20
22.06683419947592
 30
0.0
 10
217.2919402101582
 20
22.06683419947592
 30
0.0
  0
SPLINE
  5
3C9FD
102
{ACAD_REACTORS
330
3C9FA
102
}
330
2
100
AcDbEntity
  8
Layer 1
100
AcDbSpline
210
0.0
220
0.0
230
1.0
 70
    24
 71
     3
 72
     8
 73
     4
 74
     0
 42
0.000000001
 43
0.0000000001
 40
2.0
 40
2.0
 40
2.0
 40
2.0
 40
3.0
 40
3.0
 40
3.0
 40
3.0
 10
217.2919402101582
 20
22.06683419947592
 30
0.0
 10
217.2919402101582
 20
22.06683419947592
 30
0.0
 10
215.0996563311084
 20
18.67468977108518
 30
0.0
 10
215.0996563311084
 20
18.67468977108518
 30
0.0
  0
SPLINE
  5
3C9FE
102
{ACAD_REACTORS
330
3C9FA
102
}
330
2
100
AcDbEntity
  8
Layer 1
100
AcDbSpline
210
0.0
220
0.0
230
1.0
 70
    24
 71
     3
 72
     8
 73
     4
 74
     0
 42
0.000000001
 43
0.0000000001
 40
3.0
 40
3.0
 40
3.0
 40
3.0
 40
4.0
 40
4.0
 40
4.0
 40
4.0
 10
215.0996563311084
 20
18.67468977108518
 30
0.0
 10
215.0996563311084
 20
18.67468977108518
 30
0.0
 10
214.5811501905731
 20
18.67468977108518
 30
0.0
 10
214.5811501905731
 20
18.67468977108518
 30
0.0
  0
SPLINE
  5
3C9FF
102
{ACAD_REACTORS
330
3C9FA
102
}
330
2
100
AcDbEntity
  8
Layer 1
100
AcDbSpline
210
0.0
220
0.0
230
1.0
 70
    24
 71
     3
 72
     8
 73
     4
 74
     0
 42
0.000000001
 43
0.0000000001
 40
4.0
 40
4.0
 40
4.0
 40
4.0
 40
5.0
 40
5.0
 40
5.0
 40
5.0
 10
214.5811501905731
 20
18.67468977108518
 30
0.0
 10
214.5811501905731
 20
18.67468977108518
 30
0.0
 10
214.188628394701
 20
22.14078757943872
 30
0.0
 10
214.188628394701
 20
22.14078757943872
 30
0.0
  0
SPLINE
  5
3CA00
102
{ACAD_REACTORS
330
3C9FA
102
}
330
2
100
AcDbEntity
  8
Layer 1
100
AcDbSpline
210
0.0
220
0.0
230
1.0
 70
    24
 71
     3
 72
     8
 73
     4
 74
     0
 42
0.000000001
 43
0.0000000001
 40
5.0
 40
5.0
 40
5.0
 40
5.0
 40
6.0
 40
6.0
 40
6.0
 40
6.0
 10
214.188628394701
 20
22.14078757943872
 30
0.0
 10
214.188628394701
 20
22.14078757943872
 30
0.0
 10
213.1145805030982
 20
18.67468977108518
 30
0.0
 10
213.1145805030982
 20
18.67468977108518
 30
0.0
  0
SPLINE
  5
3CA01
102
{ACAD_REACTORS
330
3C9FA
102
}
330
2
100
AcDbEntity
  8
Layer 1
100
AcDbSpline
210
0.0
220
0.0
230
1.0
 70
    24
 71
     3
 72
     8
 73
     4
 74
     0
 42
0.000000001
 43
0.0000000001
 40
6.0
 40
6.0
 40
6.0
 40
6.0
 40
7.0
 40
7.0
 40
7.0
 40
7.0
 10
213.1145805030982
 20
18.67468977108518
 30
0.0
 10
213.1145805030982
 20
18.67468977108518
 30
0.0
 10
211.5223130512451
 20
18.67468977108518
 30
0.0
 10
211.5223130512451
 20
18.67468977108518
 30
0.0
  0
SPLINE
  5
3CA02
102
{ACAD_REACTORS
330
3C9FA
102
}
330
2
100
AcDbEntity
  8
Layer 1
100
AcDbSpline
210
0.0
220
0.0
230
1.0
 70
    24
 71
     3
 72
     8
 73
     4
 74
     0
 42
0.000000001
 43
0.0000000001
 40
7.0
 40
7.0
 40
7.0
 40
7.0
 40
8.0
 40
8.0
 40
8.0
 40
8.0
 10
211.5223130512451
 20
18.67468977108518
 30
0.0
 10
211.5223130512451
 20
18.67468977108518
 30
0.0
 10
213.4255926858178
 20
23.90349000964176
 30
0.0
 10
213.4255926858178
 20
23.90349000964176
 30
0.0
  0
SPLINE
  5
3CA03
102
{ACAD_REACTORS
330
3C9FA
102
}
330
2
100
AcDbEntity
  8
Layer 1
100
AcDbSpline
210
0.0
220
0.0
230
1.0
 70
    24
 71
     3
 72
     8
 73
     4
 74
     0
 42
0.000000001
 43
0.0000000001
 40
8.0
 40
8.0
 40
8.0
 40
8.0
 40
9.0
 40
9.0
 40
9.0
 40
9.0
 10
213.4255926858178
 20
23.90349000964176
 30
0.0
 10
213.4255926858178
 20
23.90349000964176
 30
0.0
 10
215.1515738280522
 20
23.90349000964176
 30
0.0
 10
215.1515738280522
 20
23.90349000964176
 30
0.0
  0
SPLINE
  5
3CA04
102
{ACAD_REACTORS
330
3C9FA
102
}
330
2
100
AcDbEntity
  8
Layer 1
100
AcDbSpline
210
0.0
220
0.0
230
1.0
 70
    24
 71
     3
 72
     8
 73
     4
 74
     0
 42
0.000000001
 43
0.0000000001
 40
9.0
 40
9.0
 40
9.0
 40
9.0
 40
10.0
 40
10.0
 40
10.0
 40
10.0
 10
215.1515738280522
 20
23.90349000964176
 30
0.0
 10
215.1515738280522
 20
23.90349000964176
 30
0.0
 10
215.469739271007
 20
21.02999287232188
 30
0.0
 10
215.469739271007
 20
21.02999287232188
 30
0.0
  0
SPLINE
  5
3CA05
102
{ACAD_REACTORS
330
3C9FA
102
}
330
2
100
AcDbEntity
  8
Layer 1
100
AcDbSpline
210
0.0
220
0.0
230
1.0
 70
    24
 71
     3
 72
     8
 73
     4
 74
     0
 42
0.000000001
 43
0.0000000001
 40
10.0
 40
10.0
 40
10.0
 40
10.0
 40
11.0
 40
11.0
 40
11.0
 40
11.0
 10
215.469739271007
 20
21.02999287232188
 30
0.0
 10
215.469739271007
 20
21.02999287232188
 30
0.0
 10
217.2769139406475
 20
23.90349000964176
 30
0.0
 10
217.2769139406475
 20
23.90349000964176
 30
0.0
  0
SPLINE
  5
3CA06
102
{ACAD_REACTORS
330
3C9FA
102
}
330
2
100
AcDbEntity
  8
Layer 1
100
AcDbSpline
210
0.0
220
0.0
230
1.0
 70
    24
 71
     3
 72
     8
 73
     4
 74
     0
 42
0.000000001
 43
0.0000000001
 40
11.0
 40
11.0
 40
11.0
 40
11.0
 40
12.0
 40
12.0
 40
12.0
 40
12.0
 10
217.2769139406475
 20
23.90349000964176
 30
0.0
 10
217.2769139406475
 20
23.90349000964176
 30
0.0
 10
219.0324878836319
 20
23.90349000964176
 30
0.0
 10
219.0324878836319
 20
23.90349000964176
 30
0.0
  0
SPLINE
  5
3CA07
102
{ACAD_REACTORS
330
3C9FA
102
}
330
2
100
AcDbEntity
  8
Layer 1
100
AcDbSpline
210
0.0
220
0.0
230
1.0
 70
    24
 71
     3
 72
     8
 73
     4
 74
     0
 42
0.000000001
 43
0.0000000001
 40
12.0
 40
12.0
 40
12.0
 40
12.0
 40
13.0
 40
13.0
 40
13.0
 40
13.0
 10
219.0324878836319
 20
23.90349000964176
 30
0.0
 10
219.0324878836319
 20
23.90349000964176
 30
0.0
 10
218.180501275468
 20
18.67468977108518
 30
0.0
 10
218.180501275468
 20
18.67468977108518
 30
0.0
  0
HATCH
  5
3CA08
330
2
100
AcDbEntity
  8
0
  6
Continuous
 62
     0
100
AcDbHatch
 10
0.0
 20
0.0
 30
0.0
210
0.0
220
0.0
230
1.0
  2
SOLID
 70
     1
 71
     0
 91
        1
 92
        5
 93
        1
 72
     4
 94
        3
 73
     0
 74
     0
 95
       41
 96
       37
 40
0.0
 40
0.0
 40
0.0
 40
0.0
 40
1.0
 40
1.0
 40
1.0
 40
2.0
 40
2.0
 40
2.0
 40
3.0
 40
3.0
 40
3.0
 40
4.0
 40
4.0
 40
4.0
 40
5.0
 40
5.0
 40
5.0
 40
6.0
 40
6.0
 40
6.0
 40
7.0
 40
7.0
 40
7.0
 40
8.0
 40
8.0
 40
8.0
 40
9.0
 40
9.0
 40
9.0
 40
10.0
 40
10.0
 40
10.0
 40
11.0
 40
11.0
 40
11.0
 40
12.0
 40
12.0
 40
12.0
 40
12.0
 10
220.0391904790142
 20
18.67468977108518
 10
220.0391904790142
 20
18.67468977108518
 10
218.3432331884863
 20
18.67468977108518
 10
218.3432331884863
 20
18.67468977108518
 10
218.3432331884863
 20
18.67468977108518
 10
221.7352635897299
 20
23.91078444267998
 10
221.7352635897299
 20
23.91078444267998
 10
221.7352635897299
 20
23.91078444267998
 10
223.4832526148247
 20
23.91078444267998
 10
223.4832526148247
 20
23.91078444267998
 10
223.4832526148247
 20
23.91078444267998
 10
223.8759171146865
 20
18.67468977108518
 10
223.8759171146865
 20
18.67468977108518
 10
223.8759171146865
 20
18.67468977108518
 10
222.2982450088152
 20
18.67468977108518
 10
222.2982450088152
 20
18.67468977108518
 10
222.2982450088152
 20
18.67468977108518
 10
222.2463282420739
 20
19.51909141720182
 10
222.2463282420739
 20
19.51909141720182
 10
222.2463282420739
 20
19.51909141720182
 10
221.1026940970015
 20
19.51909141720182
 10
221.1026940970015
 20
19.51909141720182
 10
221.1026940970015
 20
19.51909141720182
 10
221.6704457448039
 20
20.60756220192883
 10
221.6704457448039
 20
20.60756220192883
 10
221.6704457448039
 20
20.60756220192883
 10
222.1945551299167
 20
20.60756220192883
 10
222.1945551299167
 20
20.60756220192883
 10
222.1945551299167
 20
20.60756220192883
 10
222.1277844791654
 20
22.14078757943872
 10
222.1277844791654
 20
22.14078757943872
 10
222.1277844791654
 20
22.14078757943872
 10
220.0476094915368
 20
18.6864694469923
 10
220.0476094915368
 20
18.6864694469923
 10
220.0476094915368
 20
18.6864694469923
 10
220.0391904790142
 20
18.67468977108518
 10
220.0391904790142
 20
18.67468977108518
 97
        0
 97
        0
 75
     1
 76
     1
 47
0.0269459378258844
 98
        1
 10
223.2263372927054
 20
20.83641396663472
450
        0
451
        0
460
0.0
461
0.0
452
        0
462
1.0
453
        2
463
0.0
 63
     5
421
      255
463
1.0
 63
     2
421
 16776960
470
LINEAR
1001
GRADIENTCOLOR1ACI
1070
     5
1001
GRADIENTCOLOR2ACI
1070
     2
1001
ACAD
1010
0.0
1020
0.0
1030
0.0
  0
SPLINE
  5
3CA09
330
2
100
AcDbEntity
  8
Layer 1
100
AcDbSpline
210
0.0
220
0.0
230
1.0
 70
    11
 71
     3
 72
    41
 73
    37
 74
     0
 42
0.000000001
 43
0.0000000001
 40
0.0
 40
0.0
 40
0.0
 40
0.0
 40
1.0
 40
1.0
 40
1.0
 40
2.0
 40
2.0
 40
2.0
 40
3.0
 40
3.0
 40
3.0
 40
4.0
 40
4.0
 40
4.0
 40
5.0
 40
5.0
 40
5.0
 40
6.0
 40
6.0
 40
6.0
 40
7.0
 40
7.0
 40
7.0
 40
8.0
 40
8.0
 40
8.0
 40
9.0
 40
9.0
 40
9.0
 40
10.0
 40
10.0
 40
10.0
 40
11.0
 40
11.0
 40
11.0
 40
12.0
 40
12.0
 40
12.0
 40
12.0
 10
220.0391904790142
 20
18.67468977108518
 30
0.0
 10
220.0391904790142
 20
18.67468977108518
 30
0.0
 10
218.3432331884863
 20
18.67468977108518
 30
0.0
 10
218.3432331884863
 20
18.67468977108518
 30
0.0
 10
218.3432331884863
 20
18.67468977108518
 30
0.0
 10
221.7352635897298
 20
23.91078444267998
 30
0.0
 10
221.7352635897298
 20
23.91078444267998
 30
0.0
 10
221.7352635897298
 20
23.91078444267998
 30
0.0
 10
223.4832526148247
 20
23.91078444267998
 30
0.0
 10
223.4832526148247
 20
23.91078444267998
 30
0.0
 10
223.4832526148247
 20
23.91078444267998
 30
0.0
 10
223.8759171146865
 20
18.67468977108518
 30
0.0
 10
223.8759171146865
 20
18.67468977108518
 30
0.0
 10
223.8759171146865
 20
18.67468977108518
 30
0.0
 10
222.2982450088152
 20
18.67468977108518
 30
0.0
 10
222.2982450088152
 20
18.67468977108518
 30
0.0
 10
222.2982450088152
 20
18.67468977108518
 30
0.0
 10
222.2463282420739
 20
19.51909141720182
 30
0.0
 10
222.2463282420739
 20
19.51909141720182
 30
0.0
 10
222.2463282420739
 20
19.51909141720182
 30
0.0
 10
221.1026940970015
 20
19.51909141720182
 30
0.0
 10
221.1026940970015
 20
19.51909141720182
 30
0.0
 10
221.1026940970015
 20
19.51909141720182
 30
0.0
 10
221.6704457448039
 20
20.60756220192883
 30
0.0
 10
221.6704457448039
 20
20.60756220192883
 30
0.0
 10
221.6704457448039
 20
20.60756220192883
 30
0.0
 10
222.1945551299167
 20
20.60756220192883
 30
0.0
 10
222.1945551299167
 20
20.60756220192883
 30
0.0
 10
222.1945551299167
 20
20.60756220192883
 30
0.0
 10
222.1277844791654
 20
22.14078757943872
 30
0.0
 10
222.1277844791654
 20
22.14078757943872
 30
0.0
 10
222.1277844791654
 20
22.14078757943872
 30
0.0
 10
220.0476094915368
 20
18.68646944699225
 30
0.0
 10
220.0476094915368
 20
18.68646944699225
 30
0.0
 10
220.0476094915368
 20
18.68646944699225
 30
0.0
 10
220.0391904790142
 20
18.67468977108518
 30
0.0
 10
220.0391904790142
 20
18.67468977108518
 30
0.0
  0
HATCH
  5
3CA0A
330
2
100
AcDbEntity
  8
0
  6
Continuous
 62
     0
100
AcDbHatch
 10
0.0
 20
0.0
 30
0.0
210
0.0
220
0.0
230
1.0
  2
SOLID
 70
     1
 71
     1
 91
        1
 92
        5
 93
        1
 72
     4
 94
        3
 73
     0
 74
     0
 95
       17
 96
       13
 40
0.0
 40
0.0
 40
0.0
 40
0.0
 40
1.0
 40
1.0
 40
1.0
 40
2.0
 40
2.0
 40
2.0
 40
3.0
 40
3.0
 40
3.0
 40
4.0
 40
4.0
 40
4.0
 40
4.0
 10
231.0966584622914
 20
18.67468977108518
 10
231.0966584622914
 20
18.67468977108518
 10
229.4820947261802
 20
18.67468977108518
 10
229.4820947261802
 20
18.67468977108518
 10
229.4820947261802
 20
18.67468977108518
 10
230.8820086495226
 20
23.90349000964176
 10
230.8820086495226
 20
23.90349000964176
 10
230.8820086495226
 20
23.90349000964176
 10
232.4964563289571
 20
23.90349000964176
 10
232.4964563289571
 20
23.90349000964176
 10
232.4964563289571
 20
23.90349000964176
 10
231.0966584622914
 20
18.67468977108518
 10
231.0966584622914
 20
18.67468977108518
 97
        0
 97
        1
330
3CA0B
 75
     1
 76
     1
 47
0.0269459378258844
 98
        1
 10
230.4253623566432
 20
20.10302470765629
450
        0
451
        0
460
0.0
461
0.0
452
        0
462
1.0
453
        2
463
0.0
 63
     5
421
      255
463
1.0
 63
     2
421
 16776960
470
LINEAR
1001
GRADIENTCOLOR1ACI
1070
     5
1001
GRADIENTCOLOR2ACI
1070
     2
1001
ACAD
1010
0.0
1020
0.0
1030
0.0
  0
SPLINE
  5
3CA0B
102
{ACAD_REACTORS
330
3CA0A
102
}
330
2
100
AcDbEntity
  8
Layer 1
100
AcDbSpline
210
0.0
220
0.0
230
1.0
 70
    11
 71
     3
 72
    17
 73
    13
 74
     0
 42
0.000000001
 43
0.0000000001
 40
0.0
 40
0.0
 40
0.0
 40
0.0
 40
1.0
 40
1.0
 40
1.0
 40
2.0
 40
2.0
 40
2.0
 40
3.0
 40
3.0
 40
3.0
 40
4.0
 40
4.0
 40
4.0
 40
4.0
 10
231.0966584622914
 20
18.67468977108518
 30
0.0
 10
231.0966584622914
 20
18.67468977108518
 30
0.0
 10
229.4820947261802
 20
18.67468977108518
 30
0.0
 10
229.4820947261802
 20
18.67468977108518
 30
0.0
 10
229.4820947261802
 20
18.67468977108518
 30
0.0
 10
230.8820086495226
 20
23.90349000964176
 30
0.0
 10
230.8820086495226
 20
23.90349000964176
 30
0.0
 10
230.8820086495226
 20
23.90349000964176
 30
0.0
 10
232.4964563289571
 20
23.90349000964176
 30
0.0
 10
232.4964563289571
 20
23.90349000964176
 30
0.0
 10
232.4964563289571
 20
23.90349000964176
 30
0.0
 10
231.0966584622914
 20
18.67468977108518
 30
0.0
 10
231.0966584622914
 20
18.67468977108518
 30
0.0
  0
HATCH
  5
3CA0C
330
2
100
AcDbEntity
  8
0
  6
Continuous
 62
     0
100
AcDbHatch
 10
0.0
 20
0.0
 30
0.0
210
0.0
220
0.0
230
1.0
  2
SOLID
 70
     1
 71
     1
 91
        1
 92
        5
 93
       14
 72
     4
 94
        3
 73
     0
 74
     0
 95
        8
 96
        4
 40
12.0
 40
12.0
 40
12.0
 40
12.0
 40
13.0
 40
13.0
 40
13.0
 40
13.0
 10
228.2575255883517
 20
20.82741117763772
 10
228.4905333239761
 20
20.8982616185811
 10
228.7217310118395
 20
21.00235373031569
 10
228.9262664088692
 20
21.15862118704342
 97
        0
 72
     4
 94
        3
 73
     0
 74
     0
 95
        8
 96
        4
 40
13.0
 40
13.0
 40
13.0
 40
13.0
 40
14.0
 40
14.0
 40
14.0
 40
14.0
 10
228.9262664088692
 20
21.15862118704342
 10
229.3781462690298
 20
21.50681116830532
 10
229.6152337948465
 20
22.0031664877443
 10
229.6152337948465
 20
22.49176445963468
 97
        0
 72
     4
 94
        3
 73
     0
 74
     0
 95
        8
 96
        4
 40
0.0
 40
0.0
 40
0.0
 40
0.0
 40
1.0
 40
1.0
 40
1.0
 40
1.0
 10
229.6152337948465
 20
22.49176445963468
 10
229.6152337948465
 20
23.54337347804778
 10
228.6894661922208
 20
23.9137437271151
 10
227.8822434043097
 20
23.9137437271151
 97
        0
 72
     4
 94
        3
 73
     0
 74
     0
 95
        8
 96
        4
 40
1.0
 40
1.0
 40
1.0
 40
1.0
 40
2.0
 40
2.0
 40
2.0
 40
2.0
 10
227.8822434043097
 20
23.9137437271151
 10
227.8822434043097
 20
23.9137437271151
 10
225.5714157039745
 20
23.9137437271151
 10
225.5714157039745
 20
23.9137437271151
 97
        0
 72
     4
 94
        3
 73
     0
 74
     0
 95
        8
 96
        4
 40
2.0
 40
2.0
 40
2.0
 40
2.0
 40
3.0
 40
3.0
 40
3.0
 40
3.0
 10
225.5714157039745
 20
23.9137437271151
 10
225.5714157039745
 20
23.9137437271151
 10
224.1642031343237
 20
18.68480614182073
 10
224.1642031343237
 20
18.68480614182073
 97
        0
 72
     4
 94
        3
 73
     0
 74
     0
 95
        8
 96
        4
 40
3.0
 40
3.0
 40
3.0
 40
3.0
 40
4.0
 40
4.0
 40
4.0
 40
4.0
 10
224.1642031343237
 20
18.68480614182073
 10
224.1642031343237
 20
18.68480614182073
 10
225.8235285058725
 20
18.68480614182073
 10
225.8235285058725
 20
18.68480614182073
 97
        0
 72
     4
 94
        3
 73
     0
 74
     0
 95
        8
 96
        4
 40
4.0
 40
4.0
 40
4.0
 40
4.0
 40
5.0
 40
5.0
 40
5.0
 40
5.0
 10
225.8235285058725
 20
18.68480614182073
 10
225.8235285058725
 20
18.68480614182073
 10
226.9118843669322
 20
22.74344729120946
 10
226.9118843669322
 20
22.74344729120946
 97
        0
 72
     4
 94
        3
 73
     0
 74
     0
 95
        8
 96
        4
 40
5.0
 40
5.0
 40
5.0
 40
5.0
 40
6.0
 40
6.0
 40
6.0
 40
6.0
 10
226.9118843669322
 20
22.74344729120946
 10
226.9118843669322
 20
22.74344729120946
 10
227.4007696479909
 20
22.74344729120946
 10
227.4007696479909
 20
22.74344729120946
 97
        0
 72
     4
 94
        3
 73
     0
 74
     0
 95
        8
 96
        4
 40
6.0
 40
6.0
 40
6.0
 40
6.0
 40
7.0
 40
7.0
 40
7.0
 40
7.0
 10
227.9859322314023
 20
22.32147631548588
 10
227.9859322314023
 20
22.67682029504255
 10
227.6894866313809
 20
22.74344729120946
 10
227.4007696479909
 20
22.74344729120946
 97
        0
 72
     4
 94
        3
 73
     0
 74
     0
 95
        8
 96
        4
 40
7.0
 40
7.0
 40
7.0
 40
7.0
 40
8.0
 40
8.0
 40
8.0
 40
8.0
 10
227.9859322314023
 20
22.32147631548588
 10
227.9859322314023
 20
22.12900790353166
 10
227.8379105478094
 20
21.81770841950055
 10
227.3490252667508
 20
21.83270595809432
 97
        0
 72
     4
 94
        3
 73
     0
 74
     0
 95
        8
 96
        4
 40
8.0
 40
8.0
 40
8.0
 40
8.0
 40
9.0
 40
9.0
 40
9.0
 40
9.0
 10
227.3490252667508
 20
21.83270595809432
 10
227.3490252667508
 20
21.83270595809432
 10
227.0358870040415
 20
20.68642856867234
 10
227.0358870040415
 20
20.68642856867234
 97
        0
 72
     4
 94
        3
 73
     0
 74
     0
 95
        8
 96
        4
 40
9.0
 40
9.0
 40
9.0
 40
9.0
 40
10.0
 40
10.0
 40
10.0
 40
10.0
 10
227.0358870040415
 20
20.68642856867234
 10
227.0358870040415
 20
20.68642856867234
 10
227.6339497691166
 20
18.6042702938945
 10
227.6339497691166
 20
18.6042702938945
 97
        0
 72
     4
 94
        3
 73
     0
 74
     0
 95
        8
 96
        4
 40
10.0
 40
10.0
 40
10.0
 40
10.0
 40
11.0
 40
11.0
 40
11.0
 40
11.0
 10
227.6339497691166
 20
18.6042702938945
 10
227.6339497691166
 20
18.6042702938945
 10
229.0021745712758
 20
18.6042702938945
 10
229.0021745712758
 20
18.6042702938945
 97
        0
 72
     4
 94
        3
 73
     0
 74
     0
 95
        8
 96
        4
 40
11.0
 40
11.0
 40
11.0
 40
11.0
 40
12.0
 40
12.0
 40
12.0
 40
12.0
 10
229.0021745712758
 20
18.6042702938945
 10
229.0021745712758
 20
18.6042702938945
 10
228.2575255883517
 20
20.82741117763772
 10
228.2575255883517
 20
20.82741117763772
 97
        0
 97
       13
330
3CA17
330
3CA18
330
3CA19
330
3CA0D
330
3CA0E
330
3CA0F
330
3CA10
330
3CA11
330
3CA12
330
3CA13
330
3CA14
330
3CA15
330
3CA16
 75
     1
 76
     1
 47
0.0269459378258844
 98
        1
 10
227.8917258167204
 20
20.55702736606975
450
        0
451
        0
460
0.0
461
0.0
452
        0
462
1.0
453
        2
463
0.0
 63
     5
421
      255
463
1.0
 63
     2
421
 16776960
470
LINEAR
1001
GRADIENTCOLOR1ACI
1070
     5
1001
GRADIENTCOLOR2ACI
1070
     2
1001
ACAD
1010
0.0
1020
0.0
1030
0.0
  0
SPLINE
  5
3CA0D
102
{ACAD_REACTORS
330
3CA0C
102
}
330
2
100
AcDbEntity
  8
Layer 1
100
AcDbSpline
210
0.0
220
0.0
230
1.0
 70
     8
 71
     3
 72
     8
 73
     4
 74
     0
 42
0.000000001
 43
0.0000000001
 40
0.0
 40
0.0
 40
0.0
 40
0.0
 40
1.0
 40
1.0
 40
1.0
 40
1.0
 10
229.6152337948465
 20
22.49176445963468
 30
0.0
 10
229.6152337948465
 20
23.54337347804778
 30
0.0
 10
228.6894661922208
 20
23.9137437271151
 30
0.0
 10
227.8822434043097
 20
23.9137437271151
 30
0.0
  0
SPLINE
  5
3CA0E
102
{ACAD_REACTORS
330
3CA0C
102
}
330
2
100
AcDbEntity
  8
Layer 1
100
AcDbSpline
210
0.0
220
0.0
230
1.0
 70
    24
 71
     3
 72
     8
 73
     4
 74
     0
 42
0.000000001
 43
0.0000000001
 40
1.0
 40
1.0
 40
1.0
 40
1.0
 40
2.0
 40
2.0
 40
2.0
 40
2.0
 10
227.8822434043097
 20
23.9137437271151
 30
0.0
 10
227.8822434043097
 20
23.9137437271151
 30
0.0
 10
225.5714157039745
 20
23.9137437271151
 30
0.0
 10
225.5714157039745
 20
23.9137437271151
 30
0.0
  0
SPLINE
  5
3CA0F
102
{ACAD_REACTORS
330
3CA0C
102
}
330
2
100
AcDbEntity
  8
Layer 1
100
AcDbSpline
210
0.0
220
0.0
230
1.0
 70
    24
 71
     3
 72
     8
 73
     4
 74
     0
 42
0.000000001
 43
0.0000000001
 40
2.0
 40
2.0
 40
2.0
 40
2.0
 40
3.0
 40
3.0
 40
3.0
 40
3.0
 10
225.5714157039745
 20
23.9137437271151
 30
0.0
 10
225.5714157039745
 20
23.9137437271151
 30
0.0
 10
224.1642031343237
 20
18.68480614182073
 30
0.0
 10
224.1642031343237
 20
18.68480614182073
 30
0.0
  0
SPLINE
  5
3CA10
102
{ACAD_REACTORS
330
3CA0C
102
}
330
2
100
AcDbEntity
  8
Layer 1
100
AcDbSpline
210
0.0
220
0.0
230
1.0
 70
    24
 71
     3
 72
     8
 73
     4
 74
     0
 42
0.000000001
 43
0.0000000001
 40
3.0
 40
3.0
 40
3.0
 40
3.0
 40
4.0
 40
4.0
 40
4.0
 40
4.0
 10
224.1642031343237
 20
18.68480614182073
 30
0.0
 10
224.1642031343237
 20
18.68480614182073
 30
0.0
 10
225.8235285058725
 20
18.68480614182073
 30
0.0
 10
225.8235285058725
 20
18.68480614182073
 30
0.0
  0
SPLINE
  5
3CA11
102
{ACAD_REACTORS
330
3CA0C
102
}
330
2
100
AcDbEntity
  8
Layer 1
100
AcDbSpline
210
0.0
220
0.0
230
1.0
 70
    24
 71
     3
 72
     8
 73
     4
 74
     0
 42
0.000000001
 43
0.0000000001
 40
4.0
 40
4.0
 40
4.0
 40
4.0
 40
5.0
 40
5.0
 40
5.0
 40
5.0
 10
225.8235285058725
 20
18.68480614182073
 30
0.0
 10
225.8235285058725
 20
18.68480614182073
 30
0.0
 10
226.9118843669322
 20
22.74344729120946
 30
0.0
 10
226.9118843669322
 20
22.74344729120946
 30
0.0
  0
SPLINE
  5
3CA12
102
{ACAD_REACTORS
330
3CA0C
102
}
330
2
100
AcDbEntity
  8
Layer 1
100
AcDbSpline
210
0.0
220
0.0
230
1.0
 70
    24
 71
     3
 72
     8
 73
     4
 74
     0
 42
0.000000001
 43
0.0000000001
 40
5.0
 40
5.0
 40
5.0
 40
5.0
 40
6.0
 40
6.0
 40
6.0
 40
6.0
 10
226.9118843669322
 20
22.74344729120946
 30
0.0
 10
226.9118843669322
 20
22.74344729120946
 30
0.0
 10
227.4007696479909
 20
22.74344729120946
 30
0.0
 10
227.4007696479909
 20
22.74344729120946
 30
0.0
  0
SPLINE
  5
3CA13
102
{ACAD_REACTORS
330
3CA0C
102
}
330
2
100
AcDbEntity
  8
Layer 1
100
AcDbSpline
210
0.0
220
0.0
230
1.0
 70
     8
 71
     3
 72
    11
 73
     7
 74
     0
 42
0.000000001
 43
0.0000000001
 40
6.0
 40
6.0
 40
6.0
 40
6.0
 40
7.0
 40
7.0
 40
7.0
 40
8.0
 40
8.0
 40
8.0
 40
8.0
 10
227.4007696479909
 20
22.74344729120946
 30
0.0
 10
227.6894866313809
 20
22.74344729120946
 30
0.0
 10
227.9859322314023
 20
22.67682029504255
 30
0.0
 10
227.9859322314023
 20
22.32147631548588
 30
0.0
 10
227.9859322314023
 20
22.12900790353166
 30
0.0
 10
227.8379105478094
 20
21.81770841950055
 30
0.0
 10
227.3490252667508
 20
21.83270595809432
 30
0.0
  0
SPLINE
  5
3CA14
102
{ACAD_REACTORS
330
3CA0C
102
}
330
2
100
AcDbEntity
  8
Layer 1
100
AcDbSpline
210
0.0
220
0.0
230
1.0
 70
    24
 71
     3
 72
     8
 73
     4
 74
     0
 42
0.000000001
 43
0.0000000001
 40
8.0
 40
8.0
 40
8.0
 40
8.0
 40
9.0
 40
9.0
 40
9.0
 40
9.0
 10
227.3490252667508
 20
21.83270595809432
 30
0.0
 10
227.3490252667508
 20
21.83270595809432
 30
0.0
 10
227.0358870040415
 20
20.68642856867234
 30
0.0
 10
227.0358870040415
 20
20.68642856867234
 30
0.0
  0
SPLINE
  5
3CA15
102
{ACAD_REACTORS
330
3CA0C
102
}
330
2
100
AcDbEntity
  8
Layer 1
100
AcDbSpline
210
0.0
220
0.0
230
1.0
 70
    24
 71
     3
 72
     8
 73
     4
 74
     0
 42
0.000000001
 43
0.0000000001
 40
9.0
 40
9.0
 40
9.0
 40
9.0
 40
10.0
 40
10.0
 40
10.0
 40
10.0
 10
227.0358870040415
 20
20.68642856867234
 30
0.0
 10
227.0358870040415
 20
20.68642856867234
 30
0.0
 10
227.6339497691166
 20
18.6042702938945
 30
0.0
 10
227.6339497691166
 20
18.6042702938945
 30
0.0
  0
SPLINE
  5
3CA16
102
{ACAD_REACTORS
330
3CA0C
102
}
330
2
100
AcDbEntity
  8
Layer 1
100
AcDbSpline
210
0.0
220
0.0
230
1.0
 70
    24
 71
     3
 72
     8
 73
     4
 74
     0
 42
0.000000001
 43
0.0000000001
 40
10.0
 40
10.0
 40
10.0
 40
10.0
 40
11.0
 40
11.0
 40
11.0
 40
11.0
 10
227.6339497691166
 20
18.6042702938945
 30
0.0
 10
227.6339497691166
 20
18.6042702938945
 30
0.0
 10
229.0021745712758
 20
18.6042702938945
 30
0.0
 10
229.0021745712758
 20
18.6042702938945
 30
0.0
  0
SPLINE
  5
3CA17
102
{ACAD_REACTORS
330
3CA0C
102
}
330
2
100
AcDbEntity
  8
Layer 1
100
AcDbSpline
210
0.0
220
0.0
230
1.0
 70
    24
 71
     3
 72
     8
 73
     4
 74
     0
 42
0.000000001
 43
0.0000000001
 40
11.0
 40
11.0
 40
11.0
 40
11.0
 40
12.0
 40
12.0
 40
12.0
 40
12.0
 10
229.0021745712758
 20
18.6042702938945
 30
0.0
 10
229.0021745712758
 20
18.6042702938945
 30
0.0
 10
228.2575255883517
 20
20.82741117763772
 30
0.0
 10
228.2575255883517
 20
20.82741117763772
 30
0.0
  0
SPLINE
  5
3CA18
102
{ACAD_REACTORS
330
3CA0C
102
}
330
2
100
AcDbEntity
  8
Layer 1
100
AcDbSpline
210
0.0
220
0.0
230
1.0
 70
     8
 71
     3
 72
     8
 73
     4
 74
     0
 42
0.000000001
 43
0.0000000001
 40
12.0
 40
12.0
 40
12.0
 40
12.0
 40
13.0
 40
13.0
 40
13.0
 40
13.0
 10
228.2575255883517
 20
20.82741117763772
 30
0.0
 10
228.4905333239761
 20
20.8982616185811
 30
0.0
 10
228.7217310118395
 20
21.00235373031569
 30
0.0
 10
228.9262664088692
 20
21.15862118704342
 30
0.0
  0
SPLINE
  5
3CA19
102
{ACAD_REACTORS
330
3CA0C
102
}
330
2
100
AcDbEntity
  8
Layer 1
100
AcDbSpline
210
0.0
220
0.0
230
1.0
 70
     8
 71
     3
 72
     8
 73
     4
 74
     0
 42
0.000000001
 43
0.0000000001
 40
13.0
 40
13.0
 40
13.0
 40
13.0
 40
14.0
 40
14.0
 40
14.0
 40
14.0
 10
228.9262664088692
 20
21.15862118704342
 30
0.0
 10
229.3781462690298
 20
21.50681116830532
 30
0.0
 10
229.6152337948465
 20
22.0031664877443
 30
0.0
 10
229.6152337948465
 20
22.49176445963468
 30
0.0
  0
LWPOLYLINE
  5
3CA1A
102
{ACAD_REACTORS
330
3CA1B
102
}
330
2
100
AcDbEntity
  8
Layer 1
 62
   103
100
AcDbPolyline
 90
        8
 70
     1
 43
0.0
 10
250.9880479132393
 20
25.60728762062803
 10
226.1418383336141
 20
25.60826447180085
 10
225.7712095062954
 20
24.38918293908989
 10
234.3816354378358
 20
24.38875520743688
 10
232.7338024330255
 20
18.67468977108518
 10
234.3485374216287
 20
18.67468977108518
 10
235.9960543863536
 20
24.38875520743688
 10
250.6155819333411
 20
24.38803370241601
  0
HATCH
  5
3CA1B
330
2
100
AcDbEntity
  8
0
  6
Continuous
 62
    93
100
AcDbHatch
 10
0.0
 20
0.0
 30
0.0
210
0.0
220
0.0
230
1.0
  2
SOLID
 70
     1
 71
     1
 91
        1
 92
        7
 72
     0
 73
     1
 93
        8
 10
226.1418383336141
 20
25.60826447180085
 10
225.7712095062954
 20
24.38918293908989
 10
234.3816354378358
 20
24.38875520743688
 10
232.7338024330255
 20
18.67468977108518
 10
234.3485374216287
 20
18.67468977108518
 10
235.9960543863536
 20
24.38875520743688
 10
250.6155819333411
 20
24.38803370241601
 10
250.9880479132393
 20
25.60728762062803
 97
        1
330
3CA1A
 75
     1
 76
     1
 47
0.0428322549537331
 98
        1
 10
237.0752894295143
 20
25.00589142586006
450
        0
451
        0
460
0.0
461
0.0
452
        0
462
1.0
453
        2
463
0.0
 63
     5
421
      255
463
1.0
 63
     2
421
 16776960
470
LINEAR
1001
GRADIENTCOLOR1ACI
1070
     5
1001
GRADIENTCOLOR2ACI
1070
     2
1001
ACAD
1010
0.0
1020
0.0
1030
0.0
  0
HATCH
  5
3CA1C
330
2
100
AcDbEntity
  8
0
  6
Continuous
 62
     0
100
AcDbHatch
 10
0.0
 20
0.0
 30
0.0
210
0.0
220
0.0
230
1.0
  2
SOLID
 70
     1
 71
     1
 91
        2
 92
        5
 93
        4
 72
     4
 94
        3
 73
     0
 74
     0
 95
        8
 96
        4
 40
0.0
 40
0.0
 40
0.0
 40
0.0
 40
1.0
 40
1.0
 40
1.0
 40
1.0
 10
236.0960954388125
 20
20.7948590488507
 10
236.0960954388125
 20
19.43982281762248
 10
237.0241040529523
 20
18.40125763545768
 10
238.6295589554144
 20
18.40125763545768
 97
        0
 72
     4
 94
        3
 73
     0
 74
     0
 95
        8
 96
        4
 40
3.0
 40
3.0
 40
3.0
 40
3.0
 40
4.0
 40
4.0
 40
4.0
 40
4.0
 10
238.6295589554144
 20
18.40125763545768
 10
240.7581176608991
 20
18.40125763545768
 10
241.8554662989316
 20
20.02889280572492
 10
241.8554662989316
 20
21.50189818152461
 97
        0
 72
     4
 94
        3
 73
     0
 74
     0
 95
        8
 96
        4
 40
2.0
 40
2.0
 40
2.0
 40
2.0
 40
3.0
 40
3.0
 40
3.0
 40
3.0
 10
241.8554662989316
 20
21.50189818152461
 10
241.8554662989316
 20
22.82033441716857
 10
240.927601339376
 20
23.91035347892722
 10
239.2557780189989
 20
23.91035347892722
 97
        0
 72
     4
 94
        3
 73
     0
 74
     0
 95
        8
 96
        4
 40
1.0
 40
1.0
 40
1.0
 40
1.0
 40
2.0
 40
2.0
 40
2.0
 40
2.0
 10
239.2557780189989
 20
23.91035347892722
 10
237.2008566533917
 20
23.91035347892722
 10
236.0960954388125
 20
22.27516207752945
 10
236.0960954388125
 20
20.7948590488507
 97
        0
 97
        1
330
3CA1D
 92
       20
 93
        4
 72
     4
 94
        3
 73
     0
 74
     0
 95
        8
 96
        4
 40
1.0
 40
1.0
 40
1.0
 40
1.0
 40
2.0
 40
2.0
 40
2.0
 40
2.0
 10
237.7089916487378
 20
20.78026374309275
 10
237.7089916487378
 20
21.57571106793955
 10
238.2615746864555
 20
22.71721596412863
 10
239.2705169793413
 20
22.71721596412863
 97
        0
 72
     4
 94
        3
 73
     0
 74
     0
 95
        8
 96
        4
 40
0.0
 40
0.0
 40
0.0
 40
0.0
 40
1.0
 40
1.0
 40
1.0
 40
1.0
 10
239.2705169793413
 20
22.71721596412863
 10
239.8008035115759
 20
22.71721596412863
 10
240.257452703933
 20
22.35641311037114
 10
240.257452703933
 20
21.59771578920743
 97
        0
 72
     4
 94
        3
 73
     0
 74
     0
 95
        8
 96
        4
 40
3.0
 40
3.0
 40
3.0
 40
3.0
 40
4.0
 40
4.0
 40
4.0
 40
4.0
 10
240.257452703933
 20
21.59771578920743
 10
240.257452703933
 20
20.83919085354478
 10
239.8156861265024
 20
19.65335099162513
 10
238.7254914867644
 20
19.65335099162513
 97
        0
 72
     4
 94
        3
 73
     0
 74
     0
 95
        8
 96
        4
 40
2.0
 40
2.0
 40
2.0
 40
2.0
 40
3.0
 40
3.0
 40
3.0
 40
3.0
 10
238.7254914867644
 20
19.65335099162513
 10
238.1804947251045
 20
19.65335099162513
 10
237.7089916487378
 20
20.01429749996697
 10
237.7089916487378
 20
20.78026374309275
 97
        0
 97
        1
330
3CA1E
 75
     1
 76
     1
 47
0.0269459378258844
 98
        2
 10
237.205025177107
 20
19.9982556782864
 10
237.205025177107
 20
19.9982556782864
450
        0
451
        0
460
0.0
461
0.0
452
        0
462
1.0
453
        2
463
0.0
 63
     5
421
      255
463
1.0
 63
     2
421
 16776960
470
LINEAR
1001
GRADIENTCOLOR1ACI
1070
     5
1001
GRADIENTCOLOR2ACI
1070
     2
1001
ACAD
1010
0.0
1020
0.0
1030
0.0
  0
SPLINE
  5
3CA1D
102
{ACAD_REACTORS
330
3CA1C
102
}
330
2
100
AcDbEntity
  8
Layer 1
100
AcDbSpline
210
0.0
220
0.0
230
1.0
 70
     9
 71
     3
 72
    17
 73
    13
 74
     0
 42
0.000000001
 43
0.0000000001
 40
0.0
 40
0.0
 40
0.0
 40
0.0
 40
1.0
 40
1.0
 40
1.0
 40
2.0
 40
2.0
 40
2.0
 40
3.0
 40
3.0
 40
3.0
 40
4.0
 40
4.0
 40
4.0
 40
4.0
 10
238.6295589554144
 20
18.40125763545768
 30
0.0
 10
237.0241040529523
 20
18.40125763545768
 30
0.0
 10
236.0960954388125
 20
19.43982281762248
 30
0.0
 10
236.0960954388125
 20
20.7948590488507
 30
0.0
 10
236.0960954388125
 20
22.27516207752945
 30
0.0
 10
237.2008566533917
 20
23.91035347892722
 30
0.0
 10
239.2557780189989
 20
23.91035347892722
 30
0.0
 10
240.927601339376
 20
23.91035347892722
 30
0.0
 10
241.8554662989316
 20
22.82033441716857
 30
0.0
 10
241.8554662989316
 20
21.50189818152461
 30
0.0
 10
241.8554662989316
 20
20.02889280572492
 30
0.0
 10
240.7581176608991
 20
18.40125763545768
 30
0.0
 10
238.6295589554144
 20
18.40125763545768
 30
0.0
  0
SPLINE
  5
3CA1E
102
{ACAD_REACTORS
330
3CA1C
102
}
330
2
100
AcDbEntity
  8
Layer 1
100
AcDbSpline
210
0.0
220
0.0
230
1.0
 70
     9
 71
     3
 72
    17
 73
    13
 74
     0
 42
0.000000001
 43
0.0000000001
 40
0.0
 40
0.0
 40
0.0
 40
0.0
 40
1.0
 40
1.0
 40
1.0
 40
2.0
 40
2.0
 40
2.0
 40
3.0
 40
3.0
 40
3.0
 40
4.0
 40
4.0
 40
4.0
 40
4.0
 10
240.257452703933
 20
21.59771578920743
 30
0.0
 10
240.257452703933
 20
22.35641311037114
 30
0.0
 10
239.8008035115759
 20
22.71721596412863
 30
0.0
 10
239.2705169793413
 20
22.71721596412863
 30
0.0
 10
238.2615746864555
 20
22.71721596412863
 30
0.0
 10
237.7089916487378
 20
21.57571106793955
 30
0.0
 10
237.7089916487378
 20
20.78026374309275
 30
0.0
 10
237.7089916487378
 20
20.01429749996697
 30
0.0
 10
238.1804947251045
 20
19.65335099162513
 30
0.0
 10
238.7254914867644
 20
19.65335099162513
 30
0.0
 10
239.8156861265024
 20
19.65335099162513
 30
0.0
 10
240.257452703933
 20
20.83919085354478
 30
0.0
 10
240.257452703933
 20
21.59771578920743
 30
0.0
  0
HATCH
  5
3CA1F
330
2
100
AcDbEntity
  8
0
  6
Continuous
 62
     0
100
AcDbHatch
 10
0.0
 20
0.0
 30
0.0
210
0.0
220
0.0
230
1.0
  2
SOLID
 70
     1
 71
     1
 91
        2
 92
        5
 93
        4
 72
     4
 94
        3
 73
     0
 74
     0
 95
        8
 96
        4
 40
0.0
 40
0.0
 40
0.0
 40
0.0
 40
1.0
 40
1.0
 40
1.0
 40
1.0
 10
242.0353218383899
 20
20.7948590488507
 10
242.0353218383899
 20
19.43982281762248
 10
242.9634453761972
 20
18.40125763545768
 10
244.5687566240748
 20
18.40125763545768
 97
        0
 72
     4
 94
        3
 73
     0
 74
     0
 95
        8
 96
        4
 40
3.0
 40
3.0
 40
3.0
 40
3.0
 40
4.0
 40
4.0
 40
4.0
 40
4.0
 10
244.5687566240748
 20
18.40125763545768
 10
246.6973440604765
 20
18.40125763545768
 10
247.794692698509
 20
20.02889280572492
 10
247.794692698509
 20
21.50189818152461
 97
        0
 72
     4
 94
        3
 73
     0
 74
     0
 95
        8
 96
        4
 40
2.0
 40
2.0
 40
2.0
 40
2.0
 40
3.0
 40
3.0
 40
3.0
 40
3.0
 10
247.794692698509
 20
21.50189818152461
 10
247.794692698509
 20
22.82033441716857
 10
246.8666840843692
 20
23.91035347892722
 10
245.1950044185766
 20
23.91035347892722
 97
        0
 72
     4
 94
        3
 73
     0
 74
     0
 95
        8
 96
        4
 40
1.0
 40
1.0
 40
1.0
 40
1.0
 40
2.0
 40
2.0
 40
2.0
 40
2.0
 10
245.1950044185766
 20
23.91035347892722
 10
243.139939398385
 20
23.91035347892722
 10
242.0353218383899
 20
22.27516207752945
 10
242.0353218383899
 20
20.7948590488507
 97
        0
 97
        1
330
3CA21
 92
       20
 93
        4
 72
     4
 94
        3
 73
     0
 74
     0
 95
        8
 96
        4
 40
1.0
 40
1.0
 40
1.0
 40
1.0
 40
2.0
 40
2.0
 40
2.0
 40
2.0
 10
243.6483344220739
 20
20.78026374309275
 10
243.6483344220739
 20
21.57571106793955
 10
244.2006561174384
 20
22.71721596412863
 10
245.209312415166
 20
22.71721596412863
 97
        0
 72
     4
 94
        3
 73
     0
 74
     0
 95
        8
 96
        4
 40
0.0
 40
0.0
 40
0.0
 40
0.0
 40
1.0
 40
1.0
 40
1.0
 40
1.0
 10
245.209312415166
 20
22.71721596412863
 10
245.7398862565691
 20
22.71721596412863
 10
246.1965354489264
 20
22.35641311037114
 10
246.1965354489264
 20
21.59771578920743
 97
        0
 72
     4
 94
        3
 73
     0
 74
     0
 95
        8
 96
        4
 40
3.0
 40
3.0
 40
3.0
 40
3.0
 40
4.0
 40
4.0
 40
4.0
 40
4.0
 10
246.1965354489264
 20
21.59771578920743
 10
246.1965354489264
 20
20.83919085354478
 10
245.7544815623271
 20
19.65335099162513
 10
244.6644305771735
 20
19.65335099162513
 97
        0
 72
     4
 94
        3
 73
     0
 74
     0
 95
        8
 96
        4
 40
2.0
 40
2.0
 40
2.0
 40
2.0
 40
3.0
 40
3.0
 40
3.0
 40
3.0
 10
244.6644305771735
 20
19.65335099162513
 10
244.1194338155135
 20
19.65335099162513
 10
243.6483344220739
 20
20.01429749996697
 10
243.6483344220739
 20
20.78026374309275
 97
        0
 97
        1
330
3CA20
 75
     1
 76
     1
 47
0.0269459378258844
 98
        2
 10
243.5478539098793
 20
20.41733482246053
 10
243.5478539098793
 20
20.41733482246053
450
        0
451
        0
460
0.0
461
0.0
452
        0
462
1.0
453
        2
463
0.0
 63
     5
421
      255
463
1.0
 63
     2
421
 16776960
470
LINEAR
1001
GRADIENTCOLOR1ACI
1070
     5
1001
GRADIENTCOLOR2ACI
1070
     2
1001
ACAD
1010
0.0
1020
0.0
1030
0.0
  0
SPLINE
  5
3CA20
102
{ACAD_REACTORS
330
3CA1F
102
}
330
2
100
AcDbEntity
  8
Layer 1
100
AcDbSpline
210
0.0
220
0.0
230
1.0
 70
     9
 71
     3
 72
    17
 73
    13
 74
     0
 42
0.000000001
 43
0.0000000001
 40
0.0
 40
0.0
 40
0.0
 40
0.0
 40
1.0
 40
1.0
 40
1.0
 40
2.0
 40
2.0
 40
2.0
 40
3.0
 40
3.0
 40
3.0
 40
4.0
 40
4.0
 40
4.0
 40
4.0
 10
246.1965354489264
 20
21.59771578920743
 30
0.0
 10
246.1965354489264
 20
22.35641311037114
 30
0.0
 10
245.7398862565691
 20
22.71721596412863
 30
0.0
 10
245.209312415166
 20
22.71721596412863
 30
0.0
 10
244.2006561174384
 20
22.71721596412863
 30
0.0
 10
243.6483344220739
 20
21.57571106793955
 30
0.0
 10
243.6483344220739
 20
20.78026374309275
 30
0.0
 10
243.6483344220739
 20
20.01429749996697
 30
0.0
 10
244.1194338155135
 20
19.65335099162513
 30
0.0
 10
244.6644305771735
 20
19.65335099162513
 30
0.0
 10
245.7544815623271
 20
19.65335099162513
 30
0.0
 10
246.1965354489264
 20
20.83919085354478
 30
0.0
 10
246.1965354489264
 20
21.59771578920743
 30
0.0
  0
SPLINE
  5
3CA21
102
{ACAD_REACTORS
330
3CA1F
102
}
330
2
100
AcDbEntity
  8
Layer 1
100
AcDbSpline
210
0.0
220
0.0
230
1.0
 70
     9
 71
     3
 72
    17
 73
    13
 74
     0
 42
0.000000001
 43
0.0000000001
 40
0.0
 40
0.0
 40
0.0
 40
0.0
 40
1.0
 40
1.0
 40
1.0
 40
2.0
 40
2.0
 40
2.0
 40
3.0
 40
3.0
 40
3.0
 40
4.0
 40
4.0
 40
4.0
 40
4.0
 10
244.5687566240748
 20
18.40125763545768
 30
0.0
 10
242.9634453761972
 20
18.40125763545768
 30
0.0
 10
242.0353218383899
 20
19.43982281762248
 30
0.0
 10
242.0353218383899
 20
20.7948590488507
 30
0.0
 10
242.0353218383899
 20
22.27516207752945
 30
0.0
 10
243.139939398385
 20
23.91035347892722
 30
0.0
 10
245.1950044185766
 20
23.91035347892722
 30
0.0
 10
246.8666840843692
 20
23.91035347892722
 30
0.0
 10
247.794692698509
 20
22.82033441716857
 30
0.0
 10
247.794692698509
 20
21.50189818152461
 30
0.0
 10
247.794692698509
 20
20.02889280572492
 30
0.0
 10
246.6973440604765
 20
18.40125763545768
 30
0.0
 10
244.5687566240748
 20
18.40125763545768
 30
0.0
  0
HATCH
  5
3CA22
330
2
100
AcDbEntity
  8
0
  6
Continuous
 62
     0
100
AcDbHatch
 10
0.0
 20
0.0
 30
0.0
210
0.0
220
0.0
230
1.0
  2
SOLID
 70
     1
 71
     1
 91
        1
 92
        5
 93
        6
 72
     4
 94
        3
 73
     0
 74
     0
 95
        8
 96
        4
 40
4.0
 40
4.0
 40
4.0
 40
4.0
 40
5.0
 40
5.0
 40
5.0
 40
5.0
 10
249.388197134655
 20
19.76373517414919
 10
249.388197134655
 20
19.76373517414919
 10
250.4562099114949
 20
23.75578114629343
 10
250.4562099114949
 20
23.75578114629343
 97
        0
 72
     4
 94
        3
 73
     0
 74
     0
 95
        8
 96
        4
 40
3.0
 40
3.0
 40
3.0
 40
3.0
 40
4.0
 40
4.0
 40
4.0
 40
4.0
 10
250.4562099114949
 20
23.75578114629343
 10
250.4562099114949
 20
23.75578114629343
 10
248.820874855513
 20
23.75578114629343
 10
248.820874855513
 20
23.75578114629343
 97
        0
 72
     4
 94
        3
 73
     0
 74
     0
 95
        8
 96
        4
 40
2.0
 40
2.0
 40
2.0
 40
2.0
 40
3.0
 40
3.0
 40
3.0
 40
3.0
 10
248.820874855513
 20
23.75578114629343
 10
248.820874855513
 20
23.75578114629343
 10
247.4290917816382
 20
18.55600235359253
 10
247.4290917816382
 20
18.55600235359253
 97
        0
 72
     4
 94
        3
 73
     0
 74
     0
 95
        8
 96
        4
 40
1.0
 40
1.0
 40
1.0
 40
1.0
 40
2.0
 40
2.0
 40
2.0
 40
2.0
 10
247.4290917816382
 20
18.55600235359253
 10
247.4290917816382
 20
18.55600235359253
 10
250.7951501681676
 20
18.55600235359253
 10
250.7951501681676
 20
18.55600235359253
 97
        0
 72
     4
 94
        3
 73
     0
 74
     0
 95
        8
 96
        4
 40
0.0
 40
0.0
 40
0.0
 40
0.0
 40
1.0
 40
1.0
 40
1.0
 40
1.0
 10
250.7951501681676
 20
18.55600235359253
 10
250.7951501681676
 20
18.55600235359253
 10
251.194680667199
 20
19.76373517414919
 10
251.194680667199
 20
19.76373517414919
 97
        0
 72
     4
 94
        3
 73
     0
 74
     0
 95
        8
 96
        4
 40
5.0
 40
5.0
 40
5.0
 40
5.0
 40
6.0
 40
6.0
 40
6.0
 40
6.0
 10
251.194680667199
 20
19.76373517414919
 10
251.194680667199
 20
19.76373517414919
 10
249.388197134655
 20
19.76373517414919
 10
249.388197134655
 20
19.76373517414919
 97
        0
 97
        6
330
3CA27
330
3CA26
330
3CA25
330
3CA24
330
3CA23
330
3CA28
 75
     1
 76
     1
 47
0.0168242271866721
 98
        1
 10
248.8874131184788
 20
20.10292785343307
450
        0
451
        0
460
0.0
461
0.0
452
        0
462
1.0
453
        2
463
0.0
 63
     5
421
      255
463
1.0
 63
     2
421
 16776960
470
LINEAR
1001
GRADIENTCOLOR1ACI
1070
     5
1001
GRADIENTCOLOR2ACI
1070
     2
1001
ACAD
1010
0.0
1020
0.0
1030
0.0
  0
SPLINE
  5
3CA23
102
{ACAD_REACTORS
330
3CA22
102
}
330
2
100
AcDbEntity
  8
Layer 1
100
AcDbSpline
210
0.0
220
0.0
230
1.0
 70
    24
 71
     3
 72
     8
 73
     4
 74
     0
 42
0.000000001
 43
0.0000000001
 40
0.0
 40
0.0
 40
0.0
 40
0.0
 40
1.0
 40
1.0
 40
1.0
 40
1.0
 10
251.194680667199
 20
19.76373517414919
 30
0.0
 10
251.194680667199
 20
19.76373517414919
 30
0.0
 10
250.7951501681676
 20
18.55600235359253
 30
0.0
 10
250.7951501681676
 20
18.55600235359253
 30
0.0
  0
SPLINE
  5
3CA24
102
{ACAD_REACTORS
330
3CA22
102
}
330
2
100
AcDbEntity
  8
Layer 1
100
AcDbSpline
210
0.0
220
0.0
230
1.0
 70
    24
 71
     3
 72
     8
 73
     4
 74
     0
 42
0.000000001
 43
0.0000000001
 40
1.0
 40
1.0
 40
1.0
 40
1.0
 40
2.0
 40
2.0
 40
2.0
 40
2.0
 10
250.7951501681676
 20
18.55600235359253
 30
0.0
 10
250.7951501681676
 20
18.55600235359253
 30
0.0
 10
247.4290917816382
 20
18.55600235359253
 30
0.0
 10
247.4290917816382
 20
18.55600235359253
 30
0.0
  0
SPLINE
  5
3CA25
102
{ACAD_REACTORS
330
3CA22
102
}
330
2
100
AcDbEntity
  8
Layer 1
100
AcDbSpline
210
0.0
220
0.0
230
1.0
 70
    24
 71
     3
 72
     8
 73
     4
 74
     0
 42
0.000000001
 43
0.0000000001
 40
2.0
 40
2.0
 40
2.0
 40
2.0
 40
3.0
 40
3.0
 40
3.0
 40
3.0
 10
247.4290917816382
 20
18.55600235359253
 30
0.0
 10
247.4290917816382
 20
18.55600235359253
 30
0.0
 10
248.820874855513
 20
23.75578114629343
 30
0.0
 10
248.820874855513
 20
23.75578114629343
 30
0.0
  0
SPLINE
  5
3CA26
102
{ACAD_REACTORS
330
3CA22
102
}
330
2
100
AcDbEntity
  8
Layer 1
100
AcDbSpline
210
0.0
220
0.0
230
1.0
 70
    24
 71
     3
 72
     8
 73
     4
 74
     0
 42
0.000000001
 43
0.0000000001
 40
3.0
 40
3.0
 40
3.0
 40
3.0
 40
4.0
 40
4.0
 40
4.0
 40
4.0
 10
248.820874855513
 20
23.75578114629343
 30
0.0
 10
248.820874855513
 20
23.75578114629343
 30
0.0
 10
250.4562099114949
 20
23.75578114629343
 30
0.0
 10
250.4562099114949
 20
23.75578114629343
 30
0.0
  0
SPLINE
  5
3CA27
102
{ACAD_REACTORS
330
3CA22
102
}
330
2
100
AcDbEntity
  8
Layer 1
100
AcDbSpline
210
0.0
220
0.0
230
1.0
 70
    24
 71
     3
 72
     8
 73
     4
 74
     0
 42
0.000000001
 43
0.0000000001
 40
4.0
 40
4.0
 40
4.0
 40
4.0
 40
5.0
 40
5.0
 40
5.0
 40
5.0
 10
250.4562099114949
 20
23.75578114629343
 30
0.0
 10
250.4562099114949
 20
23.75578114629343
 30
0.0
 10
249.388197134655
 20
19.76373517414919
 30
0.0
 10
249.388197134655
 20
19.76373517414919
 30
0.0
  0
SPLINE
  5
3CA28
102
{ACAD_REACTORS
330
3CA22
102
}
330
2
100
AcDbEntity
  8
Layer 1
100
AcDbSpline
210
0.0
220
0.0
230
1.0
 70
    24
 71
     3
 72
     8
 73
     4
 74
     0
 42
0.000000001
 43
0.0000000001
 40
5.0
 40
5.0
 40
5.0
 40
5.0
 40
6.0
 40
6.0
 40
6.0
 40
6.0
 10
249.388197134655
 20
19.76373517414919
 30
0.0
 10
249.388197134655
 20
19.76373517414919
 30
0.0
 10
251.194680667199
 20
19.76373517414919
 30
0.0
 10
251.194680667199
 20
19.76373517414919
 30
0.0
  0
TEXT
  5
3CA29
330
2
100
AcDbEntity
  8
0
 62
     2
100
AcDbText
 10
216.5107526826763
 20
12.44259612545357
 30
0.0
 40
2.540257999999999
  1
www.maritool.com
  7
굴림
100
AcDbText
  0
TEXT
  5
3CA2A
330
2
100
AcDbEntity
  8
0
 62
     2
100
AcDbText
 10
199.1432827353754
 20
3.933672850249706
 30
0.0
 40
2.032206399999999
  1
ITEM#
  7
굴림
100
AcDbText
  0
TEXT
  5
3CA2B
330
2
100
AcDbEntity
  8
0
 62
     2
100
AcDbText
 10
214.0085661489341
 20
3.450826278019405
 30
0.0
 40
3.048309599999998
  1
BT40-FL2.36-2.16 D
  7
굴림
100
AcDbText
  0
LINE
  5
3EBDD
330
2
100
AcDbEntity
  8
0
  6
CENTER
 62
     3
100
AcDbLine
 10
14.40409736321953
 20
95.82880342716043
 30
0.0
 11
138.8040973632201
 21
95.82880342716043
 31
0.0
  0
LINE
  5
3EBDE
330
2
100
AcDbEntity
  8
0
  6
Continuous
 62
     7
100
AcDbLine
 10
103.4040973632195
 20
64.44727821704919
 30
0.0
 11
103.4040973632195
 21
88.83594993234101
 31
0.0
  0
LINE
  5
3EBE0
330
2
100
AcDbEntity
  8
0
  6
Continuous
 62
     7
100
AcDbLine
 10
16.40409736321953
 20
95.82880342716043
 30
0.0
 11
16.40409736321953
 21
84.67881836816534
 31
0.0
1001
ACAD
1000
ASC_BOUNDS
1002
{
1070
    19
1002
}
  0
LINE
  5
3EBE1
330
2
100
AcDbEntity
  8
0
  6
Continuous
 62
     7
100
AcDbLine
 10
95.90409736321953
 20
68.71867640823757
 30
0.0
 11
95.90409736321953
 21
87.77880342716025
 31
0.0
1001
ACAD
1000
ASC_BOUNDS
1002
{
1070
    19
1002
}
  0
LINE
  5
3EBE2
330
2
100
AcDbEntity
  8
0
  6
Continuous
 62
     7
100
AcDbLine
 10
100.9040973632195
 20
68.71867640823757
 30
0.0
 11
100.9040973632204
 21
88.93097768276811
 31
0.0
1001
ACAD
1000
ASC_BOUNDS
1002
{
1070
    19
1002
}
  0
LINE
  5
3EBE3
330
2
100
AcDbEntity
  8
0
  6
Continuous
 62
     7
100
AcDbLine
 10
93.40409736321953
 20
64.44727821704919
 30
0.0
 11
93.40409736321953
 21
86.1788034271599
 31
0.0
  0
LINE
  5
3EBE4
330
2
100
AcDbEntity
  8
0
  6
Continuous
 62
     7
100
AcDbLine
 10
81.80409736322008
 20
73.60380342716007
 30
0.0
 11
17.92551972372109
 21
82.91942872544561
 31
0.0
1001
ACAD
1000
ASC_BOUNDS
1002
{
1070
    19
1002
}
  0
ARC
  5
3EBE5
330
2
100
AcDbEntity
  8
0
  6
Continuous
 62
     7
100
AcDbCircle
 10
18.18209736321955
 20
84.67881836816534
 30
0.0
 40
1.778
100
AcDbArc
 50
180.0
 51
261.7028555636875
1001
ACAD
1000
ASC_BOUNDS
1002
{
1070
    19
1002
}
  0
LINE
  5
3EBE6
330
2
100
AcDbEntity
  8
0
 62
     7
100
AcDbLine
 10
95.90409736321953
 20
68.71867640823757
 30
0.0
 11
93.51394058318375
 21
64.57880342716044
 31
0.0
1001
ACAD
1000
ASC_BOUNDS
1002
{
1070
    19
1002
}
  0
ARC
  5
3EBE7
330
2
100
AcDbEntity
  8
0
  6
Continuous
 62
     7
100
AcDbCircle
 10
93.08092788129171
 20
64.82880342716043
 30
0.0
 40
0.5
100
AcDbArc
 50
270.0
 51
329.9999999999962
1001
ACAD
1000
ASC_BOUNDS
1002
{
1070
    19
1002
}
  0
LINE
  5
3EBE8
330
2
100
AcDbEntity
  8
0
 62
     7
100
AcDbLine
 10
100.9040973632195
 20
68.71867640823757
 30
0.0
 11
103.2942541432562
 21
64.57880342716044
 31
0.0
1001
ACAD
1000
ASC_BOUNDS
1002
{
1070
    19
1002
}
  0
ARC
  5
3EBE9
330
2
100
AcDbEntity
  8
0
  6
Continuous
 62
     7
100
AcDbCircle
 10
103.7272668451483
 20
64.82880342716043
 30
0.0
 40
0.5
100
AcDbArc
 50
210.0000000000038
 51
270.0
1001
ACAD
1000
ASC_BOUNDS
1002
{
1070
    19
1002
}
  0
LINE
  5
3EBEA
330
2
100
AcDbEntity
  8
0
  6
Continuous
 62
     7
100
AcDbLine
 10
93.08092788129171
 20
64.32880342716043
 30
0.0
 11
83.80409736322008
 21
64.32880342716043
 31
0.0
1001
ACAD
1000
ASC_BOUNDS
1002
{
1070
    19
1002
}
  0
LINE
  5
3EBEB
330
2
100
AcDbEntity
  8
0
  6
Continuous
 62
     7
100
AcDbLine
 10
107.80409736322
 20
64.32880342716043
 30
0.0
 11
103.7272668451483
 21
64.32880342716043
 31
0.0
1001
ACAD
1000
ASC_BOUNDS
1002
{
1070
    19
1002
}
  0
LINE
  5
3EBEC
330
2
100
AcDbEntity
  8
0
 62
     7
100
AcDbLine
 10
100.9040973632195
 20
69.32880342716043
 30
0.0
 11
95.90409736321953
 21
69.32880342716043
 31
0.0
1001
ACAD
1000
ASC_BOUNDS
1002
{
1070
    19
1002
}
  0
LINE
  5
3EBEE
102
{ACAD_REACTORS
330
3F7B6
102
}
330
2
100
AcDbEntity
  8
0
  6
Continuous
 62
     7
100
AcDbLine
 10
81.80409736322008
 20
118.0538034271599
 30
0.0
 11
17.92551972372109
 21
108.7381781288743
 31
0.0
1001
ACAD
1000
ASC_BOUNDS
1002
{
1070
    19
1002
}
  0
ARC
  5
3EBEF
102
{ACAD_REACTORS
330
3F7B6
102
}
330
2
100
AcDbEntity
  8
0
  6
Continuous
 62
     7
100
AcDbCircle
 10
18.18209736321955
 20
106.9787884861546
 30
0.0
 40
1.778
100
AcDbArc
 50
98.29714443631271
 51
180.0
1001
ACAD
1000
ASC_BOUNDS
1002
{
1070
    19
1002
}
  0
LINE
  5
3EBF0
102
{ACAD_REACTORS
330
3F7B6
102
}
330
2
100
AcDbEntity
  8
0
  6
Continuous
 62
     7
100
AcDbLine
 10
59.40409736321953
 20
102.5788034271604
 30
0.0
 11
96.40409736321954
 21
102.5788034271604
 31
0.0
1001
ACAD
1000
ASC_BOUNDS
1002
{
1070
    19
1002
}
  0
LINE
  5
3EBF1
102
{ACAD_REACTORS
330
3F7B6
102
}
330
2
100
AcDbEntity
  8
0
  6
Continuous
 62
     7
100
AcDbLine
 10
16.40409736321953
 20
106.9787884861546
 30
0.0
 11
16.40409736321953
 21
95.82880342716043
 31
0.0
1001
ACAD
1000
ASC_BOUNDS
1002
{
1070
    19
1002
}
  0
LINE
  5
3EBF2
102
{ACAD_REACTORS
330
3F7B6
102
}
330
2
100
AcDbEntity
  8
0
  6
Continuous
 62
     3
100
AcDbLine
 10
51.40409736321953
 20
103.8288034271604
 30
0.0
 11
25.5584503831592
 21
103.8288034271604
 31
0.0
1001
ACAD
1000
ASC_BOUNDS
1002
{
1070
    19
1002
}
  0
LINE
  5
3EBF3
102
{ACAD_REACTORS
330
3F7B6
102
}
330
2
100
AcDbEntity
  8
0
  6
Continuous
 62
     7
100
AcDbLine
 10
26.01703846560622
 20
103.0288034271602
 30
0.0
 11
59.40409736321953
 21
103.0288034271602
 31
0.0
1001
ACAD
1000
ASC_BOUNDS
1002
{
1070
    19
1002
}
  0
LINE
  5
3EBF4
102
{ACAD_REACTORS
330
3F7B6
102
}
330
2
100
AcDbEntity
  8
0
  6
Continuous
 62
     7
100
AcDbLine
 10
25.40409736321953
 20
104.6288034271597
 30
0.0
 11
25.40398587861592
 21
95.82880342716043
 31
0.0
1001
ACAD
1000
ASC_BOUNDS
1002
{
1070
    19
1002
}
  0
LINE
  5
3EBF5
330
2
100
AcDbEntity
  8
0
  6
Continuous
 62
     7
100
AcDbLine
 10
26.01703846560622
 20
103.0288034271602
 30
0.0
 11
26.01703846560622
 21
95.82880342716043
 31
0.0
  0
LINE
  5
3EBF6
330
2
100
AcDbEntity
  8
0
  6
Continuous
100
AcDbLine
 10
23.40409736301944
 20
104.6288034271597
 30
0.0
 11
23.40409736301944
 21
95.8288003054945
 31
0.0
  0
LINE
  5
3EBF7
330
2
100
AcDbEntity
  8
0
  6
Continuous
100
AcDbLine
 10
22.28448212074955
 20
104.3288034271604
 30
0.0
 11
22.28448212074955
 21
95.82880342716043
 31
0.0
  0
LINE
  5
3EBF8
102
{ACAD_REACTORS
330
3F7B6
102
}
330
2
100
AcDbEntity
  8
0
  6
Continuous
100
AcDbLine
 10
23.40409736301944
 20
104.6288034271597
 30
0.0
 11
22.28448212074955
 21
104.3288034271604
 31
0.0
  0
LINE
  5
3EBF9
102
{ACAD_REACTORS
330
3F7B6
102
}
330
2
100
AcDbEntity
  8
0
100
AcDbLine
 10
17.1361481707886
 20
104.3288034271604
 30
0.0
 11
22.28448212074955
 21
104.3288034271604
 31
0.0
  0
LINE
  5
3EBFA
102
{ACAD_REACTORS
330
3F7B6
102
}
330
2
100
AcDbEntity
  8
0
  6
Continuous
 62
     7
100
AcDbLine
 10
25.40409063966263
 20
104.098081673857
 30
0.0
 11
26.01703846560622
 21
103.0288034271602
 31
0.0
1001
ACAD
1000
ASC_BOUNDS
1002
{
1070
    19
1002
}
  0
LINE
  5
3EBFB
102
{ACAD_REACTORS
330
3F7B6
102
}
330
2
100
AcDbEntity
  8
0
  6
ByBlock
 62
     0
100
AcDbLine
 10
23.40409736301944
 20
104.6288034271597
 30
0.0
 11
25.40409736321953
 21
104.6288034271597
 31
0.0
  0
LINE
  5
3EBFC
102
{ACAD_REACTORS
330
3F7B6
102
}
330
2
100
AcDbEntity
  8
0
  6
Continuous
 62
     2
100
AcDbLine
 10
51.40409736321953
 20
95.82880342716043
 30
0.0
 11
51.40409736321953
 21
103.8288034271604
 31
0.0
1001
ACAD
1000
ASC_BOUNDS
1002
{
1070
    19
1002
}
  0
LINE
  5
3EBFD
102
{ACAD_REACTORS
330
3F7B6
102
}
330
2
100
AcDbEntity
  8
0
  6
Continuous
 62
     7
100
AcDbLine
 10
59.40409736321953
 20
103.0288034271602
 30
0.0
 11
59.40409736321953
 21
95.82880342716043
 31
0.0
  0
LINE
  5
3EBFE
102
{ACAD_REACTORS
330
3F7B6
102
}
330
2
100
AcDbEntity
  8
0
  6
Continuous
 62
     3
100
AcDbLine
 10
51.40409736321953
 20
103.8288034271604
 30
0.0
 11
52.78973800927497
 21
103.0288034271602
 31
0.0
1001
ACAD
1000
ASC_BOUNDS
1002
{
1070
    19
1002
}
  0
LINE
  5
3EBFF
102
{ACAD_REACTORS
330
3F7B6
102
}
330
2
100
AcDbEntity
  8
0
  6
Continuous
 62
     7
100
AcDbLine
 10
93.08092788129171
 20
127.3288034271604
 30
0.0
 11
83.80409736322008
 21
127.3288034271604
 31
0.0
1001
ACAD
1000
ASC_BOUNDS
1002
{
1070
    19
1002
}
  0
ARC
  5
3EC00
102
{ACAD_REACTORS
330
3F7B6
102
}
330
2
100
AcDbEntity
  8
0
  6
Continuous
 62
     7
100
AcDbCircle
 10
93.08092788129171
 20
126.8288034271604
 30
0.0
 40
0.5
100
AcDbArc
 50
30.00000000000377
 51
90.0
1001
ACAD
1000
ASC_BOUNDS
1002
{
1070
    19
1002
}
  0
LINE
  5
3EC01
102
{ACAD_REACTORS
330
3F7B6
102
}
330
2
100
AcDbEntity
  8
0
 62
     7
100
AcDbLine
 10
95.90409736321953
 20
122.9389304460824
 30
0.0
 11
93.51394058318375
 21
127.0788034271604
 31
0.0
1001
ACAD
1000
ASC_BOUNDS
1002
{
1070
    19
1002
}
  0
LINE
  5
3EC02
102
{ACAD_REACTORS
330
3F7B6
102
}
330
2
100
AcDbEntity
  8
0
 62
     7
100
AcDbLine
 10
100.9040973632195
 20
122.9389304460824
 30
0.0
 11
103.2942541432562
 21
127.0788034271604
 31
0.0
1001
ACAD
1000
ASC_BOUNDS
1002
{
1070
    19
1002
}
  0
LINE
  5
3EC03
102
{ACAD_REACTORS
330
3F7B6
102
}
330
2
100
AcDbEntity
  8
0
 62
     7
100
AcDbLine
 10
100.9040973632195
 20
122.3288034271604
 30
0.0
 11
95.90409736321953
 21
122.3288034271604
 31
0.0
1001
ACAD
1000
ASC_BOUNDS
1002
{
1070
    19
1002
}
  0
LINE
  5
3EC04
102
{ACAD_REACTORS
330
3F7B6
102
}
330
2
100
AcDbEntity
  8
0
  6
Continuous
 62
     7
100
AcDbLine
 10
95.90409736321953
 20
122.9389304460824
 30
0.0
 11
95.90409736321953
 21
122.3288034271604
 31
0.0
1001
ACAD
1000
ASC_BOUNDS
1002
{
1070
    19
1002
}
  0
POINT
  5
3EC05
330
2
100
AcDbEntity
  8
DEFPOINTS
  6
ByBlock
 62
     0
100
AcDbPoint
 10
96.29084870916768
 20
122.3288034271604
 30
0.0
  0
LINE
  5
3EC06
102
{ACAD_REACTORS
330
3F7B6
102
}
330
2
100
AcDbEntity
  8
0
  6
Continuous
 62
     7
100
AcDbLine
 10
100.9040973632195
 20
122.9389304460824
 30
0.0
 11
100.9040973632195
 21
122.3288034271604
 31
0.0
1001
ACAD
1000
ASC_BOUNDS
1002
{
1070
    19
1002
}
  0
ARC
  5
3EC07
102
{ACAD_REACTORS
330
3F7B6
102
}
330
2
100
AcDbEntity
  8
0
  6
Continuous
 62
     7
100
AcDbCircle
 10
103.7272668451483
 20
126.8288034271604
 30
0.0
 40
0.5
100
AcDbArc
 50
90.0
 51
149.9999999999962
1001
ACAD
1000
ASC_BOUNDS
1002
{
1070
    19
1002
}
  0
LINE
  5
3EC08
330
2
100
AcDbEntity
  8
0
  6
Continuous
100
AcDbLine
 10
17.1361481707886
 20
104.3288034271604
 30
0.0
 11
17.1361481707886
 21
95.82880342716043
 31
0.0
  0
ARC
  5
3EC09
330
2
100
AcDbEntity
  8
0
  6
Continuous
100
AcDbCircle
 10
96.7540973632199
 20
95.82880342716043
 30
0.0
 40
8.049999999999954
100
AcDbArc
 50
270.0
 51
0.0
  0
ARC
  5
3EC0A
330
2
100
AcDbEntity
  8
0
  6
Continuous
100
AcDbCircle
 10
96.7540973632199
 20
95.82880342716043
 30
0.0
 40
9.649999999999954
100
AcDbArc
 50
313.560424003241
 51
0.0
  0
LINE
  5
3EC0B
330
2
100
AcDbEntity
  8
0
  6
Continuous
100
AcDbLine
 10
96.7540973632199
 20
87.77880342716025
 30
0.0
 11
84.30409736322076
 21
87.77880342716027
 31
0.0
  0
LINE
  5
3EC0C
330
2
100
AcDbEntity
  8
0
  6
Continuous
100
AcDbLine
 10
93.40409736321953
 20
86.1788034271599
 30
0.0
 11
82.80409736322033
 21
86.1788034271599
 31
0.0
  0
LINE
  5
3EC0D
330
2
100
AcDbEntity
  8
0
  6
Continuous
 62
     7
100
AcDbLine
 10
93.40409736321953
 20
86.1788034271599
 30
0.0
 11
95.90409736321953
 21
87.77880342716025
 31
0.0
  0
LINE
  5
3EC0E
330
2
100
AcDbEntity
  8
0
  6
Continuous
 62
     7
100
AcDbLine
 10
100.9040973632204
 20
88.93097768276811
 30
0.0
 11
103.4040973632195
 21
88.83594993234101
 31
0.0
  0
LINE
  5
3EC0F
102
{ACAD_REACTORS
330
3F7B6
102
}
330
2
100
AcDbEntity
  8
0
  6
Continuous
 62
     7
100
AcDbLine
 10
16.40409736321953
 20
104.7514531579704
 30
0.0
 11
17.1361481707886
 21
104.3288034271604
 31
0.0
  0
LINE
  5
3EC12
330
2
100
AcDbEntity
  8
0
 62
     7
100
AcDbLine
 10
108.804097363221
 20
95.82880342716043
 30
0.0
 11
108.80409736322
 21
65.32880342716044
 31
0.0
1001
ACAD
1000
ASC_BOUNDS
1002
{
1070
    19
1002
}
  0
ARC
  5
3EC13
330
2
100
AcDbEntity
  8
0
  6
Continuous
 62
     7
100
AcDbCircle
 10
107.80409736322
 20
65.32880342716044
 30
0.0
 40
1.0
100
AcDbArc
 50
270.0
 51
4.09604375815467
1001
ACAD
1000
ASC_BOUNDS
1002
{
1070
    19
1002
}
  0
ARC
  5
3EC14
330
2
100
AcDbEntity
  8
0
  6
Continuous
 62
     7
100
AcDbCircle
 10
109.2005213675966
 20
65.42880342716043
 30
0.0
 40
0.4
100
AcDbArc
 50
90.0
 51
184.0960437581547
1001
ACAD
1000
ASC_BOUNDS
1002
{
1070
    19
1002
}
  0
LINE
  5
3EC1E
102
{ACAD_REACTORS
330
3F7B6
102
}
330
2
100
AcDbEntity
  8
0
  6
Continuous
 62
     7
100
AcDbLine
 10
107.80409736322
 20
127.3288034271604
 30
0.0
 11
103.7272668451483
 21
127.3288034271604
 31
0.0
1001
ACAD
1000
ASC_BOUNDS
1002
{
1070
    19
1002
}
  0
ARC
  5
3EC1F
102
{ACAD_REACTORS
330
3F7B6
102
}
330
2
100
AcDbEntity
  8
0
  6
Continuous
 62
     7
100
AcDbCircle
 10
107.80409736322
 20
126.3288034271604
 30
0.0
 40
1.0
100
AcDbArc
 50
355.9039562418453
 51
90.0
1001
ACAD
1000
ASC_BOUNDS
1002
{
1070
    19
1002
}
  0
ARC
  5
3EC20
102
{ACAD_REACTORS
330
3F7B6
102
}
330
2
100
AcDbEntity
  8
0
  6
Continuous
 62
     7
100
AcDbCircle
 10
109.2005213675966
 20
126.2288034271604
 30
0.0
 40
0.4
100
AcDbArc
 50
175.9039562418453
 51
270.0
1001
ACAD
1000
ASC_BOUNDS
1002
{
1070
    19
1002
}
  0
LINE
  5
3EC24
102
{ACAD_REACTORS
330
3F7B6
102
}
330
2
100
AcDbEntity
  8
0
 62
     0
100
AcDbLine
 10
97.9918106034915
 20
99.82880342716043
 30
0.0
 11
110.1956581807853
 21
99.82880342716043
 31
0.0
  0
LINE
  5
3EC25
330
2
100
AcDbEntity
  8
0
  6
Continuous
 62
     7
100
AcDbLine
 10
110.1956581807853
 20
99.82880342716043
 30
0.0
 11
110.1956581807853
 21
95.82880342716043
 31
0.0
  0
LINE
  5
3EC26
102
{ACAD_REACTORS
330
3F7B6
102
}
330
2
100
AcDbEntity
  8
0
  6
ByBlock
 62
     0
100
AcDbLine
 10
136.3040973632201
 20
109.0368034271682
 30
0.0
 11
125.8040973632205
 21
109.0368034271682
 31
0.0
  0
LINE
  5
3EC27
102
{ACAD_REACTORS
330
3F7B6
102
}
330
2
100
AcDbEntity
  8
0
  6
ByBlock
 62
     0
100
AcDbLine
 10
134.3040973632201
 20
118.8288034271604
 30
0.0
 11
126.3040973632201
 21
118.8288034271604
 31
0.0
  0
LINE
  5
3EC28
330
2
100
AcDbEntity
  8
0
  6
ByBlock
 62
     0
100
AcDbLine
 10
132.8540973632202
 20
118.3288034271604
 30
0.0
 11
130.3040973632201
 21
118.3288034271604
 31
0.0
  0
LINE
  5
3EC29
102
{ACAD_REACTORS
330
3F7B6
102
}
330
2
100
AcDbEntity
  8
0
  6
ByBlock
 62
     0
100
AcDbLine
 10
125.8040973632205
 20
109.3368034271675
 30
0.0
 11
118.8040973632205
 21
109.3368034271675
 31
0.0
  0
LINE
  5
3EC2A
330
2
100
AcDbEntity
  8
0
 62
     0
100
AcDbLine
 10
136.3040973632201
 20
65.82880342716044
 30
0.0
 11
109.2005213675966
 21
65.82880342716044
 31
0.0
  0
LINE
  5
3EC2B
102
{ACAD_REACTORS
330
3F7B6
102
}
330
2
100
AcDbEntity
  8
0
 62
     0
100
AcDbLine
 10
136.3040973632201
 20
125.8288034271604
 30
0.0
 11
109.2005213675966
 21
125.8288034271604
 31
0.0
  0
LINE
  5
3EC2C
102
{ACAD_REACTORS
330
3F7B6
102
}
330
2
100
AcDbEntity
  8
0
 62
     0
100
AcDbLine
 10
136.8040973632201
 20
125.3288034271604
 30
0.0
 11
136.8040973632201
 21
66.32880342716044
 31
0.0
  0
LINE
  5
3EC2D
330
2
100
AcDbEntity
  8
0
 62
     0
100
AcDbLine
 10
136.3040973632201
 20
109.0368034271682
 30
0.0
 11
136.3040973632201
 21
95.82880342716043
 31
0.0
  0
LINE
  5
3EC2E
330
2
100
AcDbEntity
  8
0
  6
CENTER
 62
     3
100
AcDbLine
 10
130.3040973632201
 20
127.7573140842155
 30
0.0
 11
130.3040973632201
 21
106.3288034271604
 31
0.0
  0
LINE
  5
3EC2F
102
{ACAD_REACTORS
330
3F7B6
102
}
330
2
100
AcDbEntity
  8
0
 62
     0
100
AcDbLine
 10
134.3040973632201
 20
125.22880342716
 30
0.0
 11
134.3040973632201
 21
118.8288034271604
 31
0.0
  0
LINE
  5
3EC30
102
{ACAD_REACTORS
330
3F7B6
102
}
330
2
100
AcDbEntity
  8
0
 62
     0
100
AcDbLine
 10
132.8540973632202
 20
118.3288034271604
 30
0.0
 11
132.8540973632202
 21
109.0368034271682
 31
0.0
  0
LINE
  5
3EC31
102
{ACAD_REACTORS
330
3F7B6
102
}
330
2
100
AcDbEntity
  8
0
 62
     3
100
AcDbLine
 10
133.3040973632201
 20
118.7788034271593
 30
0.0
 11
133.3040973632201
 21
109.0368034271682
 31
0.0
  0
LINE
  5
3EC32
102
{ACAD_REACTORS
330
3F7B6
102
}
330
2
100
AcDbEntity
  8
0
 62
     0
100
AcDbLine
 10
118.8040973632205
 20
109.3368034271675
 30
0.0
 11
118.8040973632196
 21
95.82880342716043
 31
0.0
  0
LINE
  5
3EC33
102
{ACAD_REACTORS
330
3F7B6
102
}
330
2
100
AcDbEntity
  8
0
  6
Continuous
 62
     0
100
AcDbLine
 10
118.30409736322
 20
106.0788034271586
 30
0.0
 11
118.8040973632201
 21
106.5788034271586
 31
0.0
  0
LINE
  5
3EC34
102
{ACAD_REACTORS
330
3F7B6
102
}
330
2
100
AcDbEntity
  8
0
 62
     0
100
AcDbLine
 10
125.8040973632205
 20
109.3368034271675
 30
0.0
 11
125.8040973632201
 21
95.82880342716043
 31
0.0
  0
LINE
  5
3EC35
102
{ACAD_REACTORS
330
3F7B6
102
}
330
2
100
AcDbEntity
  8
0
 62
     0
100
AcDbLine
 10
136.3040973632201
 20
125.8288034271604
 30
0.0
 11
136.8040973632201
 21
125.3288034271604
 31
0.0
  0
LINE
  5
3EC37
330
2
100
AcDbEntity
  8
0
 62
     0
100
AcDbLine
 10
136.3040973632201
 20
65.82880342716044
 30
0.0
 11
136.8040973632201
 21
66.32880342716044
 31
0.0
  0
LINE
  5
3EC38
330
2
100
AcDbEntity
  8
0
  6
Continuous
 62
     7
100
AcDbLine
 10
136.3040973632201
 20
65.82880342716044
 30
0.0
 11
136.3040973632201
 21
95.82880342716043
 31
0.0
  0
LINE
  5
3EC39
102
{ACAD_REACTORS
330
3F7B6
102
}
330
2
100
AcDbEntity
  8
0
  6
Continuous
 62
     7
100
AcDbLine
 10
132.8540973632202
 20
118.3288034271604
 30
0.0
 11
133.3540973632202
 21
118.8288034271604
 31
0.0
  0
LINE
  5
3EC3A
330
2
100
AcDbEntity
  8
0
  6
ByBlock
 62
     0
100
AcDbLine
 10
127.7540973632199
 20
118.3288034271604
 30
0.0
 11
130.3040973632201
 21
118.3288034271604
 31
0.0
  0
LINE
  5
3EC3B
102
{ACAD_REACTORS
330
3F7B6
102
}
330
2
100
AcDbEntity
  8
0
 62
     0
100
AcDbLine
 10
127.7540973632199
 20
118.3288034271604
 30
0.0
 11
127.7540973632203
 21
109.0368034271682
 31
0.0
  0
LINE
  5
3EC3C
102
{ACAD_REACTORS
330
3F7B6
102
}
330
2
100
AcDbEntity
  8
0
 62
     3
100
AcDbLine
 10
127.3040973632201
 20
118.7788034271593
 30
0.0
 11
127.3040973632201
 21
109.0368034271682
 31
0.0
  0
LINE
  5
3EC3D
102
{ACAD_REACTORS
330
3F7B6
102
}
330
2
100
AcDbEntity
  8
0
  6
Continuous
 62
     7
100
AcDbLine
 10
127.7540973632199
 20
118.3288034271604
 30
0.0
 11
127.2540973632199
 21
118.8288034271604
 31
0.0
  0
LINE
  5
3EC3E
330
2
100
AcDbEntity
  8
0
  6
Continuous
 62
     7
100
AcDbLine
 10
130.3040973632205
 20
125.22880342716
 30
0.0
 11
134.3040973632205
 21
125.22880342716
 31
0.0
  0
LINE
  5
3EC3F
102
{ACAD_REACTORS
330
3F7B6
102
}
330
2
100
AcDbEntity
  8
0
  6
Continuous
 62
     7
100
AcDbLine
 10
134.3040973632205
 20
125.22880342716
 30
0.0
 11
134.90409736322
 21
125.8288034271604
 31
0.0
  0
LINE
  5
3EC40
102
{ACAD_REACTORS
330
3F7B6
102
}
330
2
100
AcDbEntity
  8
0
 62
     0
100
AcDbLine
 10
126.304097363221
 20
125.22880342716
 30
0.0
 11
126.3040973632205
 21
118.8288034271604
 31
0.0
  0
LINE
  5
3EC41
330
2
100
AcDbEntity
  8
0
  6
Continuous
 62
     7
100
AcDbLine
 10
130.3040973632205
 20
125.22880342716
 30
0.0
 11
126.3040973632205
 21
125.22880342716
 31
0.0
  0
LINE
  5
3EC42
102
{ACAD_REACTORS
330
3F7B6
102
}
330
2
100
AcDbEntity
  8
0
  6
Continuous
 62
     7
100
AcDbLine
 10
126.3040973632205
 20
125.22880342716
 30
0.0
 11
125.7040973632211
 21
125.8288034271604
 31
0.0
  0
LINE
  5
3EC43
330
2
100
AcDbEntity
  8
0
  6
CENTER
 62
     3
100
AcDbLine
 10
130.3040973632201
 20
63.82880342716044
 30
0.0
 11
130.3040973632201
 21
87.82880342716044
 31
0.0
  0
LINE
  5
3EC44
330
2
100
AcDbEntity
  8
0
  6
Continuous
 62
     7
100
AcDbLine
 10
118.30409736322
 20
106.0788034271586
 30
0.0
 11
118.30409736322
 21
95.82880342716043
 31
0.0
  0
LINE
  5
3EC45
102
{ACAD_REACTORS
330
3F7B6
102
}
330
2
100
AcDbEntity
  8
0
  6
Continuous
 62
     7
100
AcDbLine
 10
136.3040973632201
 20
109.0368034271682
 30
0.0
 11
136.8040973632205
 21
109.3254785617623
 31
0.0
  0
LINE
  5
3EC46
102
{ACAD_REACTORS
330
3F7B6
102
}
330
2
100
AcDbEntity
  8
0
  6
ByBlock
 62
     0
100
AcDbLine
 10
113.8040973632201
 20
106.0788034271586
 30
0.0
 11
118.30409736322
 21
106.0788034271586
 31
0.0
  0
LINE
  5
3EC47
330
2
100
AcDbEntity
  8
0
 62
     0
100
AcDbLine
 10
113.8040973632201
 20
106.0788034271586
 30
0.0
 11
113.8040973632201
 21
95.82880342716043
 31
0.0
  0
LINE
  5
3EC48
102
{ACAD_REACTORS
330
3F7B6
102
}
330
2
100
AcDbEntity
  8
0
  6
Continuous
 62
     7
100
AcDbLine
 10
113.8040973632201
 20
106.0788034271586
 30
0.0
 11
110.1956581807853
 21
99.82880342716043
 31
0.0
  0
CIRCLE
  5
3EC4D
330
2
100
AcDbEntity
  8
0
  6
Continuous
 62
     7
100
AcDbCircle
 10
218.1167127022472
 20
95.82880342716043
 30
0.0
 40
3.40000000000009
  0
CIRCLE
  5
3EC4E
330
2
100
AcDbEntity
  8
0
  6
Continuous
 62
     7
100
AcDbCircle
 10
218.1167127022472
 20
95.82880342716043
 30
0.0
 40
30.0
  0
LINE
  5
3EC4F
330
2
100
AcDbEntity
  8
0
  6
HIDDEN
 62
     2
 48
0.05
100
AcDbLine
 10
222.1167127022472
 20
118.8288034271586
 30
0.0
 11
214.1167127022472
 21
118.8288034271586
 31
0.0
  0
LINE
  5
3EC50
330
2
100
AcDbEntity
  8
0
  6
HIDDEN
 62
     2
 48
0.05
100
AcDbLine
 10
220.6667127022474
 20
118.3288034271586
 30
0.0
 11
218.1167127022472
 21
118.3288034271586
 31
0.0
  0
LINE
  5
3EC51
330
2
100
AcDbEntity
  8
0
  6
HIDDEN
 62
     2
 48
0.05
100
AcDbLine
 10
222.1167127022472
 20
125.22880342716
 30
0.0
 11
222.1167127022472
 21
118.8288034271586
 31
0.0
  0
LINE
  5
3EC52
330
2
100
AcDbEntity
  8
0
  6
HIDDEN
 62
     2
 48
0.05
100
AcDbLine
 10
220.6667127022474
 20
118.3288034271586
 30
0.0
 11
220.6667127022465
 21
108.7883082016501
 31
0.0
  0
LINE
  5
3EC53
330
2
100
AcDbEntity
  8
0
  6
HIDDEN
 62
     2
 48
0.05
100
AcDbLine
 10
221.1167127022473
 20
118.7788034271593
 30
0.0
 11
221.1167127022473
 21
108.6915894395292
 31
0.0
  0
LINE
  5
3EC54
330
2
100
AcDbEntity
  8
0
  6
HIDDEN
 62
     2
 48
0.05
100
AcDbLine
 10
220.6667127022474
 20
118.3288034271586
 30
0.0
 11
221.1667127022474
 21
118.8288034271586
 31
0.0
  0
LINE
  5
3EC55
330
2
100
AcDbEntity
  8
0
  6
HIDDEN
 62
     2
 48
0.05
100
AcDbLine
 10
215.566712702247
 20
118.3288034271586
 30
0.0
 11
218.1167127022472
 21
118.3288034271586
 31
0.0
  0
LINE
  5
3EC56
330
2
100
AcDbEntity
  8
0
  6
HIDDEN
 62
     2
 48
0.05
100
AcDbLine
 10
215.566712702247
 20
118.3288034271586
 30
0.0
 11
215.5667127022466
 21
108.7883082016501
 31
0.0
  0
LINE
  5
3EC57
330
2
100
AcDbEntity
  8
0
  6
HIDDEN
 62
     2
 48
0.05
100
AcDbLine
 10
215.1167127022473
 20
118.7788034271593
 30
0.0
 11
215.1167127022473
 21
108.6915894395292
 31
0.0
  0
LINE
  5
3EC58
330
2
100
AcDbEntity
  8
0
  6
HIDDEN
 62
     2
 48
0.05
100
AcDbLine
 10
215.566712702247
 20
118.3288034271586
 30
0.0
 11
215.0667127022471
 21
118.8288034271586
 31
0.0
  0
LINE
  5
3EC59
330
2
100
AcDbEntity
  8
0
  6
HIDDEN
 62
     2
 48
0.05
100
AcDbLine
 10
218.1167127022472
 20
125.22880342716
 30
0.0
 11
222.1167127022472
 21
125.22880342716
 31
0.0
  0
LINE
  5
3EC5A
330
2
100
AcDbEntity
  8
0
  6
HIDDEN
 62
     2
 48
0.05
100
AcDbLine
 10
222.1167127022472
 20
125.22880342716
 30
0.0
 11
222.4081811496763
 21
125.520271874589
 31
0.0
  0
LINE
  5
3EC5B
330
2
100
AcDbEntity
  8
0
  6
HIDDEN
 62
     2
 48
0.05
100
AcDbLine
 10
214.1167127022477
 20
125.22880342716
 30
0.0
 11
214.1167127022477
 21
118.8288034271586
 31
0.0
  0
LINE
  5
3EC5C
330
2
100
AcDbEntity
  8
0
  6
HIDDEN
 62
     2
 48
0.05
100
AcDbLine
 10
218.1167127022472
 20
125.22880342716
 30
0.0
 11
214.1167127022472
 21
125.22880342716
 31
0.0
  0
LINE
  5
3EC5D
330
2
100
AcDbEntity
  8
0
  6
HIDDEN
 62
     2
 48
0.05
100
AcDbLine
 10
214.1167127022472
 20
125.22880342716
 30
0.0
 11
213.8252442548183
 21
125.520271874589
 31
0.0
  0
LINE
  5
3EC5E
330
2
100
AcDbEntity
  8
0
  6
HIDDEN
 62
     2
 48
0.05
100
AcDbLine
 10
195.1167127022472
 20
99.82880342716043
 30
0.0
 11
195.1167127022472
 21
91.82880342716044
 31
0.0
  0
LINE
  5
3EC5F
330
2
100
AcDbEntity
  8
0
  6
HIDDEN
 62
     2
 48
0.05
100
AcDbLine
 10
195.6167127022472
 20
98.37880342716154
 30
0.0
 11
195.6167127022472
 21
95.82880342716043
 31
0.0
  0
LINE
  5
3EC60
330
2
100
AcDbEntity
  8
0
  6
HIDDEN
 62
     2
 48
0.05
100
AcDbLine
 10
188.7167127022471
 20
99.82880342716043
 30
0.0
 11
195.1167127022472
 21
99.82880342716043
 31
0.0
  0
LINE
  5
3EC61
330
2
100
AcDbEntity
  8
0
  6
HIDDEN
 62
     2
 48
0.05
100
AcDbLine
 10
195.6167127022472
 20
98.37880342716154
 30
0.0
 11
205.1572079277689
 21
98.37880342715607
 31
0.0
  0
LINE
  5
3EC62
330
2
100
AcDbEntity
  8
0
  6
HIDDEN
 62
     2
 48
0.05
100
AcDbLine
 10
195.1667127022474
 20
98.82880342716044
 30
0.0
 11
205.2539266898893
 21
98.82880342716044
 31
0.0
  0
LINE
  5
3EC63
330
2
100
AcDbEntity
  8
0
  6
HIDDEN
 62
     2
 48
0.05
100
AcDbLine
 10
195.6167127022472
 20
98.37880342715971
 30
0.0
 11
195.1167127022472
 21
98.87880342715972
 31
0.0
  0
LINE
  5
3EC64
330
2
100
AcDbEntity
  8
0
  6
HIDDEN
 62
     2
 48
0.05
100
AcDbLine
 10
195.6167127022472
 20
93.27880342716117
 30
0.0
 11
195.6167127022472
 21
95.82880342716043
 31
0.0
  0
LINE
  5
3EC65
330
2
100
AcDbEntity
  8
0
  6
HIDDEN
 62
     2
 48
0.05
100
AcDbLine
 10
195.6167127022472
 20
93.27880342716117
 30
0.0
 11
205.1572079277762
 21
93.27880342715753
 31
0.0
  0
LINE
  5
3EC66
330
2
100
AcDbEntity
  8
0
  6
HIDDEN
 62
     2
 48
0.05
100
AcDbLine
 10
195.1667127022474
 20
92.82880342716044
 30
0.0
 11
205.2539266898957
 21
92.82880342716044
 31
0.0
  0
LINE
  5
3EC67
330
2
100
AcDbEntity
  8
0
  6
HIDDEN
 62
     2
 48
0.05
100
AcDbLine
 10
195.6167127022472
 20
93.27880342716117
 30
0.0
 11
195.1167127022472
 21
92.77880342716116
 31
0.0
  0
LINE
  5
3EC68
330
2
100
AcDbEntity
  8
0
  6
HIDDEN
 62
     2
 48
0.05
100
AcDbLine
 10
188.7167127022471
 20
95.82880342716043
 30
0.0
 11
188.7167127022471
 21
99.82880342716043
 31
0.0
  0
LINE
  5
3EC69
330
2
100
AcDbEntity
  8
0
  6
HIDDEN
 62
     2
 48
0.05
100
AcDbLine
 10
188.7167127022471
 20
99.82880342716043
 30
0.0
 11
188.4252442548177
 21
100.1202718745894
 31
0.0
  0
LINE
  5
3EC6A
330
2
100
AcDbEntity
  8
0
  6
HIDDEN
 62
     2
 48
0.05
100
AcDbLine
 10
188.7167127022471
 20
91.82880342716044
 30
0.0
 11
195.1167127022472
 21
91.82880342716044
 31
0.0
  0
LINE
  5
3EC6B
330
2
100
AcDbEntity
  8
0
  6
HIDDEN
 62
     2
 48
0.05
100
AcDbLine
 10
188.7167127022471
 20
95.82880342716043
 30
0.0
 11
188.7167127022471
 21
91.82880342716044
 31
0.0
  0
LINE
  5
3EC6C
330
2
100
AcDbEntity
  8
0
  6
HIDDEN
 62
     2
 48
0.05
100
AcDbLine
 10
188.7167127022471
 20
91.82880342716044
 30
0.0
 11
188.4252442548177
 21
91.53733497973144
 31
0.0
  0
LINE
  5
3EC6D
330
2
100
AcDbEntity
  8
0
  6
HIDDEN
 62
     2
 48
0.05
100
AcDbLine
 10
214.1167127022472
 20
72.82880342716044
 30
0.0
 11
222.1167127022472
 21
72.82880342716044
 31
0.0
  0
LINE
  5
3EC6E
330
2
100
AcDbEntity
  8
0
  6
HIDDEN
 62
     2
 48
0.05
100
AcDbLine
 10
215.566712702247
 20
73.32880342716044
 30
0.0
 11
218.1167127022472
 21
73.32880342716044
 31
0.0
  0
LINE
  5
3EC6F
330
2
100
AcDbEntity
  8
0
  6
HIDDEN
 62
     2
 48
0.05
100
AcDbLine
 10
214.1167127022472
 20
66.42880342715898
 30
0.0
 11
214.1167127022472
 21
72.82880342716044
 31
0.0
  0
LINE
  5
3EC70
330
2
100
AcDbEntity
  8
0
  6
HIDDEN
 62
     2
 48
0.05
100
AcDbLine
 10
215.566712702247
 20
73.32880342716044
 30
0.0
 11
215.5667127022466
 21
82.86929865269986
 31
0.0
  0
LINE
  5
3EC71
330
2
100
AcDbEntity
  8
0
  6
HIDDEN
 62
     2
 48
0.05
100
AcDbLine
 10
215.1167127022473
 20
72.87880342715971
 30
0.0
 11
215.1167127022473
 21
82.96601741482072
 31
0.0
  0
LINE
  5
3EC72
330
2
100
AcDbEntity
  8
0
  6
HIDDEN
 62
     2
 48
0.05
100
AcDbLine
 10
215.566712702247
 20
73.32880342716044
 30
0.0
 11
215.0667127022471
 21
72.82880342716044
 31
0.0
  0
LINE
  5
3EC73
330
2
100
AcDbEntity
  8
0
  6
HIDDEN
 62
     2
 48
0.05
100
AcDbLine
 10
220.6667127022474
 20
73.32880342716044
 30
0.0
 11
218.1167127022472
 21
73.32880342716044
 31
0.0
  0
LINE
  5
3EC74
330
2
100
AcDbEntity
  8
0
  6
HIDDEN
 62
     2
 48
0.05
100
AcDbLine
 10
220.6667127022474
 20
73.32880342716044
 30
0.0
 11
220.6667127022474
 21
82.86929865269986
 31
0.0
  0
LINE
  5
3EC75
330
2
100
AcDbEntity
  8
0
  6
HIDDEN
 62
     2
 48
0.05
100
AcDbLine
 10
221.1167127022473
 20
72.87880342715971
 30
0.0
 11
221.1167127022468
 21
82.96601741482072
 31
0.0
  0
LINE
  5
3EC76
330
2
100
AcDbEntity
  8
0
  6
HIDDEN
 62
     2
 48
0.05
100
AcDbLine
 10
220.6667127022474
 20
73.32880342716044
 30
0.0
 11
221.1667127022474
 21
72.82880342716044
 31
0.0
  0
LINE
  5
3EC77
330
2
100
AcDbEntity
  8
0
  6
HIDDEN
 62
     2
 48
0.05
100
AcDbLine
 10
218.1167127022472
 20
66.42880342715898
 30
0.0
 11
214.1167127022472
 21
66.42880342715898
 31
0.0
  0
LINE
  5
3EC78
330
2
100
AcDbEntity
  8
0
  6
HIDDEN
 62
     2
 48
0.05
100
AcDbLine
 10
214.1167127022472
 20
66.42880342715898
 30
0.0
 11
213.8252442548178
 21
66.13733497972998
 31
0.0
  0
LINE
  5
3EC79
330
2
100
AcDbEntity
  8
0
  6
HIDDEN
 62
     2
 48
0.05
100
AcDbLine
 10
222.1167127022468
 20
66.42880342715898
 30
0.0
 11
222.1167127022468
 21
72.82880342716044
 31
0.0
  0
LINE
  5
3EC7A
330
2
100
AcDbEntity
  8
0
  6
HIDDEN
 62
     2
 48
0.05
100
AcDbLine
 10
218.1167127022472
 20
66.42880342715898
 30
0.0
 11
222.1167127022472
 21
66.42880342715898
 31
0.0
  0
LINE
  5
3EC7B
330
2
100
AcDbEntity
  8
0
  6
HIDDEN
 62
     2
 48
0.05
100
AcDbLine
 10
222.1167127022472
 20
66.42880342715898
 30
0.0
 11
222.4081811496763
 21
66.13733497972998
 31
0.0
  0
LINE
  5
3EC7C
330
2
100
AcDbEntity
  8
0
  6
HIDDEN
 62
     2
 48
0.05
100
AcDbLine
 10
241.1167127022472
 20
91.82880342716044
 30
0.0
 11
241.1167127022472
 21
99.82880342716043
 31
0.0
  0
LINE
  5
3EC7D
330
2
100
AcDbEntity
  8
0
  6
HIDDEN
 62
     2
 48
0.05
100
AcDbLine
 10
240.6167127022472
 20
93.27880342715934
 30
0.0
 11
240.6167127022472
 21
95.82880342716043
 31
0.0
  0
LINE
  5
3EC7E
330
2
100
AcDbEntity
  8
0
  6
HIDDEN
 62
     2
 48
0.05
100
AcDbLine
 10
247.5167127022473
 20
91.82880342716044
 30
0.0
 11
241.1167127022472
 21
91.82880342716044
 31
0.0
  0
LINE
  5
3EC7F
330
2
100
AcDbEntity
  8
0
  6
HIDDEN
 62
     2
 48
0.05
100
AcDbLine
 10
240.6167127022472
 20
93.27880342715934
 30
0.0
 11
231.0762174767197
 21
93.27880342716298
 31
0.0
  0
LINE
  5
3EC80
330
2
100
AcDbEntity
  8
0
  6
HIDDEN
 62
     2
 48
0.05
100
AcDbLine
 10
241.066712702247
 20
92.82880342716044
 30
0.0
 11
230.9794987145983
 21
92.82880342715861
 31
0.0
  0
LINE
  5
3EC81
330
2
100
AcDbEntity
  8
0
  6
HIDDEN
 62
     2
 48
0.05
100
AcDbLine
 10
240.6167127022472
 20
93.27880342716117
 30
0.0
 11
241.1167127022472
 21
92.77880342716116
 31
0.0
  0
LINE
  5
3EC82
330
2
100
AcDbEntity
  8
0
  6
HIDDEN
 62
     2
 48
0.05
100
AcDbLine
 10
240.6167127022472
 20
98.37880342715971
 30
0.0
 11
240.6167127022472
 21
95.82880342716043
 31
0.0
  0
LINE
  5
3EC83
330
2
100
AcDbEntity
  8
0
  6
HIDDEN
 62
     2
 48
0.05
100
AcDbLine
 10
240.6167127022472
 20
98.37880342715971
 30
0.0
 11
231.0762174767246
 21
98.37880342715971
 31
0.0
  0
LINE
  5
3EC84
330
2
100
AcDbEntity
  8
0
  6
HIDDEN
 62
     2
 48
0.05
100
AcDbLine
 10
241.066712702247
 20
98.82880342716044
 30
0.0
 11
230.9794987146052
 21
98.82880342716044
 31
0.0
  0
LINE
  5
3EC85
330
2
100
AcDbEntity
  8
0
  6
HIDDEN
 62
     2
 48
0.05
100
AcDbLine
 10
240.6167127022472
 20
98.37880342715971
 30
0.0
 11
241.1167127022472
 21
98.87880342715972
 31
0.0
  0
LINE
  5
3EC86
330
2
100
AcDbEntity
  8
0
  6
HIDDEN
 62
     2
 48
0.05
100
AcDbLine
 10
247.5167127022473
 20
95.82880342716043
 30
0.0
 11
247.5167127022473
 21
91.82880342716044
 31
0.0
  0
LINE
  5
3EC87
330
2
100
AcDbEntity
  8
0
  6
HIDDEN
 62
     2
 48
0.05
100
AcDbLine
 10
247.5167127022473
 20
91.82880342716044
 30
0.0
 11
247.8081811496768
 21
91.53733497973144
 31
0.0
  0
LINE
  5
3EC88
330
2
100
AcDbEntity
  8
0
  6
HIDDEN
 62
     2
 48
0.05
100
AcDbLine
 10
247.5167127022473
 20
99.82880342716043
 30
0.0
 11
241.1167127022472
 21
99.82880342716043
 31
0.0
  0
LINE
  5
3EC89
330
2
100
AcDbEntity
  8
0
  6
HIDDEN
 62
     2
 48
0.05
100
AcDbLine
 10
247.5167127022473
 20
95.82880342716043
 30
0.0
 11
247.5167127022473
 21
99.82880342716043
 31
0.0
  0
LINE
  5
3EC8A
330
2
100
AcDbEntity
  8
0
  6
HIDDEN
 62
     2
 48
0.05
100
AcDbLine
 10
247.5167127022473
 20
99.82880342716043
 30
0.0
 11
247.8081811496768
 21
100.1202718745894
 31
0.0
  0
LINE
  5
3EC8B
330
2
100
AcDbEntity
  8
0
  6
Continuous
 62
     3
100
AcDbLine
 10
217.4096059210606
 20
95.12169664597378
 30
0.0
 11
196.5499558760575
 21
74.26204660096982
 31
0.0
  0
LINE
  5
3EC8C
330
2
100
AcDbEntity
  8
0
  6
Continuous
 62
     3
100
AcDbLine
 10
218.8238194834339
 20
96.53591020834529
 30
0.0
 11
239.6834695284369
 21
117.3955602533492
 31
0.0
  0
LINE
  5
3EC8D
330
2
100
AcDbEntity
  8
0
  6
Continuous
 62
     3
100
AcDbLine
 10
218.8238194834339
 20
95.12169664597378
 30
0.0
 11
239.6834695284369
 21
74.26204660096982
 31
0.0
  0
LINE
  5
3EC8E
330
2
100
AcDbEntity
  8
0
  6
Continuous
 62
     3
100
AcDbLine
 10
217.4096059210606
 20
96.53591020834529
 30
0.0
 11
196.5499558760575
 21
117.3955602533492
 31
0.0
  0
LINE
  5
3EC8F
330
2
100
AcDbEntity
  8
0
  6
Continuous
 62
     3
100
AcDbLine
 10
217.6167127022472
 20
95.82880342716043
 30
0.0
 11
218.6167127022472
 21
95.82880342716043
 31
0.0
  0
LINE
  5
3EC90
330
2
100
AcDbEntity
  8
0
  6
Continuous
 62
     3
100
AcDbLine
 10
218.1167127022472
 20
95.32880342716044
 30
0.0
 11
218.1167127022472
 21
96.32880342716044
 31
0.0
  0
LINE
  5
3EC91
330
2
100
AcDbEntity
  8
0
  6
Continuous
 62
     3
100
AcDbLine
 10
217.1167127022473
 20
95.82880342716043
 30
0.0
 11
187.6167127022472
 21
95.82880342716043
 31
0.0
  0
LINE
  5
3EC92
330
2
100
AcDbEntity
  8
0
  6
Continuous
 62
     3
100
AcDbLine
 10
219.1167127022473
 20
95.82880342716043
 30
0.0
 11
248.6167127022473
 21
95.82880342716043
 31
0.0
  0
LINE
  5
3EC93
330
2
100
AcDbEntity
  8
0
  6
Continuous
 62
     3
100
AcDbLine
 10
218.1167127022472
 20
94.82880342716043
 30
0.0
 11
218.1167127022472
 21
65.32880342716044
 31
0.0
  0
LINE
  5
3EC94
330
2
100
AcDbEntity
  8
0
  6
Continuous
 62
     3
100
AcDbLine
 10
218.1167127022472
 20
96.82880342716044
 30
0.0
 11
218.1167127022472
 21
126.3288034271604
 31
0.0
  0
CIRCLE
  5
3EC95
330
2
100
AcDbEntity
  8
0
  6
CENTER
 62
     3
100
AcDbCircle
 10
218.1167127022472
 20
95.82880342716043
 30
0.0
 40
23.0
  0
CIRCLE
  5
3EC96
330
2
100
AcDbEntity
  8
0
  6
Continuous
 62
     7
100
AcDbCircle
 10
218.1167127022472
 20
95.82880342716043
 30
0.0
 40
10.24999999999977
  0
INSERT
  5
3EC97
102
{ACAD_REACTORS
330
3ECAA
102
}
330
2
100
AcDbEntity
  8
0
  6
Continuous
 62
     7
100
AcDbBlockReference
  2
*U5
 10
-3103.034147121849
 20
963.7320536275614
 30
0.0
  0
CIRCLE
  5
3EC98
330
2
100
AcDbEntity
  8
0
  6
Continuous
 62
     7
100
AcDbCircle
 10
218.1167127022472
 20
95.82880342717499
 30
0.0
 40
13.20799999998598
  0
LINE
  5
3EC9F
330
2
100
AcDbEntity
  8
0
  6
Continuous
 62
     7
100
AcDbLine
 10
96.40409736321954
 20
102.5788034271604
 30
0.0
 11
96.40409736321954
 21
95.82880342716043
 31
0.0
  0
LINE
  5
3ECA0
102
{ACAD_REACTORS
330
3F7B6
102
}
330
2
100
AcDbEntity
  8
0
  6
Continuous
 62
     7
100
AcDbLine
 10
96.40409736321954
 20
102.5788034271604
 30
0.0
 11
97.99181060348201
 21
99.82880342717681
 31
0.0
  0
LINE
  5
3ECA1
330
2
100
AcDbEntity
  8
0
  6
Continuous
 62
     7
100
AcDbLine
 10
97.99181060348201
 20
99.82880342717681
 30
0.0
 11
97.99181060348201
 21
95.82880342716043
 31
0.0
  0
LINE
  5
3EEF4
330
2
100
AcDbEntity
  8
0
  6
Continuous
 62
     3
100
AcDbLine
 10
81.80409736322008
 20
73.44701402921771
 30
0.0
 11
81.80409736322008
 21
46.53504965352545
 31
0.0
  0
MTEXT
  5
3EEF5
330
2
100
AcDbEntity
  8
0
  6
Continuous
 62
     2
100
AcDbMText
 10
81.8046315323677
 20
44.08623454972939
 30
0.0
 40
3.0
 41
0.0
 46
0.0
 71
     5
 72
     1
  1
0.00
 73
     1
 44
1.0
  0
DIMENSION
  5
3EEF8
330
2
100
AcDbEntity
  8
0
  6
Continuous
 62
     7
100
AcDbDimension
280
     0
  2
*D6
 10
63.97760680256319
 20
118.05380342716
 30
0.0
 11
63.97760680256317
 21
136.6121478622713
 31
0.0
 70
   160
  1
%%C1.7500
 71
     5
 42
44.44999999999993
 73
     0
 74
     0
 75
     0
  3
Standard$0
100
AcDbAlignedDimension
 13
81.80409736322008
 23
73.60380342716007
 33
0.0
 14
81.80409736322008
 24
118.05380342716
 34
0.0
 50
90.0
100
AcDbRotatedDimension
1001
ACAD
1000
DSTYLE
1002
{
1070
    42
1040
0.625
1070
    43
1040
3.75
1070
    44
1040
1.25
1070
    48
1040
0.000000001
1070
    74
1070
     0
1070
    77
1070
     1
1070
    90
1070
     1
1070
   140
1040
3.0
1070
   141
1040
-0.5
1070
   143
1040
0.03937007874016
1070
   146
1040
0.7
1070
   147
1040
0.625
1070
   171
1070
     3
1070
   172
1070
     1
1070
   175
1070
     0
1070
   179
1070
     0
1070
   274
1070
     3
1070
   283
1070
     0
1070
   284
1070
     8
1070
   340
1005
25
1070
   371
1070
    -1
1070
   372
1070
    -1
1002
}
  0
DIMENSION
  5
3EEF9
330
2
100
AcDbEntity
  8
0
  6
Continuous
 62
     7
100
AcDbDimension
280
     0
  2
*D7
 10
55.97760680256296
 20
127.3288034271601
 30
0.0
 11
55.97760680256294
 21
136.3580258215397
 31
0.0
 70
   160
  1
%%C2.480
 71
     5
 42
62.99999999999966
 73
     0
 74
     0
 75
     0
  3
Standard$0
100
AcDbAlignedDimension
 13
83.80409736322008
 23
64.32880342716043
 33
0.0
 14
83.80409736322008
 24
127.3288034271601
 34
0.0
 50
90.0
100
AcDbRotatedDimension
1001
ACAD
1000
DSTYLE
1002
{
1070
    42
1040
0.625
1070
    43
1040
3.75
1070
    44
1040
1.25
1070
    48
1040
0.000000001
1070
    74
1070
     0
1070
    77
1070
     1
1070
    90
1070
     1
1070
   140
1040
3.0
1070
   141
1040
-0.5
1070
   143
1040
0.03937007874016
1070
   146
1040
0.7
1070
   147
1040
0.625
1070
   171
1070
     3
1070
   172
1070
     1
1070
   175
1070
     0
1070
   179
1070
     0
1070
   274
1070
     3
1070
   283
1070
     0
1070
   284
1070
     8
1070
   340
1005
25
1070
   371
1070
    -1
1070
   372
1070
    -1
1002
}
  0
LINE
  5
3EEFA
330
2
100
AcDbEntity
  8
0
  6
Continuous
 62
     3
100
AcDbLine
 10
16.40409736321999
 20
84.13563789276816
 30
0.0
 11
16.40409736321999
 21
46.53504965352545
 31
0.0
  0
MTEXT
  5
3EEFB
330
2
100
AcDbEntity
  8
0
  6
Continuous
 62
     2
100
AcDbMText
 10
16.40463153236749
 20
44.08623454972939
 30
0.0
 40
3.0
 41
0.0
 46
0.0
 71
     5
 72
     1
  1
2.57
 73
     1
 44
1.0
  0
LINE
  5
3EEFC
330
2
100
AcDbEntity
  8
0
  6
Continuous
 62
     3
100
AcDbLine
 10
82.80409736322008
 20
64.07075519766158
 30
0.0
 11
82.80409736322008
 21
55.84076583942351
 31
0.0
  0
LINE
  5
3EEFD
330
2
100
AcDbEntity
  8
0
  6
Continuous
 62
     3
100
AcDbLine
 10
82.80409736322008
 20
55.84076583942351
 30
0.0
 11
91.24724815356637
 21
54.09202467097952
 31
0.0
  0
LINE
  5
3EEFE
330
2
100
AcDbEntity
  8
0
  6
Continuous
 62
     3
100
AcDbLine
 10
91.24724815356637
 20
54.09202467097952
 30
0.0
 11
91.24724815356637
 21
41.26709932663516
 31
0.0
  0
MTEXT
  5
3EEFF
330
2
100
AcDbEntity
  8
0
  6
Continuous
 62
     2
100
AcDbMText
 10
91.19179138344032
 20
38.78565506612631
 30
0.0
 40
3.0
 41
0.0
 46
0.0
 71
     5
 72
     1
  1
0.04
 73
     1
 44
1.0
  0
LEADER
  5
3EF03
330
2
100
AcDbEntity
  8
0
  6
Continuous
 62
     7
100
AcDbLeader
  3
Standard
 73
     0
 40
3.000590551181101
 41
12.6023622047244
 76
     3
 10
35.98127387318937
 20
103.8288034271586
 30
0.0
 10
41.70417306451429
 20
125.1662140895419
 30
0.0
 10
40.40303702503035
 20
125.1662140895419
 30
0.0
340
3EF04
213
0.0
223
-1.5
233
0.0
1001
ACAD
1000
DSTYLE
1002
{
1070
    42
1040
0.625
1070
    43
1040
3.75
1070
    44
1040
1.25
1070
    48
1040
0.000000001
1070
    74
1070
     0
1070
    77
1070
     0
1070
    90
1070
     1
1070
   140
1040
3.0
1070
   141
1040
-0.5
1070
   143
1040
0.03937007874016
1070
   146
1040
0.7
1070
   147
1040
0.625
1070
   171
1070
     3
1070
   172
1070
     1
1070
   175
1070
     0
1070
   179
1070
     0
1070
   274
1070
     3
1070
   283
1070
     0
1070
   284
1070
     8
1070
   340
1005
25
1070
   371
1070
    -1
1070
   372
1070
    -1
1002
}
  0
MTEXT
  5
3EF04
102
{ACAD_REACTORS
330
3EF03
102
}
330
2
100
AcDbEntity
  8
0
  6
Continuous
 62
     2
100
AcDbMText
 10
39.77803702503036
 20
126.6662140895419
 30
0.0
 40
3.0
 41
13.0823622047244
 46
0.0
 71
     3
 72
     1
  1
M16*2.0
 73
     1
 44
1.0
  0
LINE
  5
3F01F
330
2
100
AcDbEntity
  8
0
  6
Continuous
 62
     3
100
AcDbLine
 10
136.8040973632201
 20
65.5005270144079
 30
0.0
 11
136.8040973632201
 21
46.53504965352541
 31
0.0
  0
MTEXT
  5
3F020
330
2
100
AcDbEntity
  8
0
  6
Continuous
 62
     2
100
AcDbMText
 10
136.8046315323677
 20
44.08623454972937
 30
0.0
 40
3.0
 41
0.0
 46
0.0
 71
     5
 72
     1
  1
2.16
 73
     1
 44
1.0
  0
LINE
  5
3F59E
330
2
100
AcDbEntity
  8
0
  6
Continuous
 62
     7
100
AcDbLine
 10
81.80409736322008
 20
73.60380342716007
 30
0.0
 11
81.80409736322008
 21
95.82880342716009
 31
0.0
  0
LINE
  5
3F59F
330
2
100
AcDbEntity
  8
0
  6
Continuous
 62
     7
100
AcDbLine
 10
82.80409736322031
 20
73.87175261959123
 30
0.0
 11
82.80409736322031
 21
95.82880342716009
 31
0.0
  0
LINE
  5
3F5A0
330
2
100
AcDbEntity
  8
0
 62
     7
100
AcDbLine
 10
82.80409736322008
 20
95.82880342716009
 30
0.0
 11
82.80409736322008
 21
65.32880342716009
 31
0.0
1001
ACAD
1000
ASC_BOUNDS
1002
{
1070
    19
1002
}
  0
ARC
  5
3F5A1
330
2
100
AcDbEntity
  8
0
  6
Continuous
 62
     7
100
AcDbCircle
 10
83.80409736322008
 20
65.32880342716009
 30
0.0
 40
1.0
100
AcDbArc
 50
180.0
 51
270.0
1001
ACAD
1000
ASC_BOUNDS
1002
{
1070
    19
1002
}
  0
LINE
  5
3F5A2
102
{ACAD_REACTORS
330
3F7B6
102
}
330
2
100
AcDbEntity
  8
0
 62
     7
100
AcDbLine
 10
82.80409736322008
 20
117.8631180022108
 30
0.0
 11
82.80409736322008
 21
126.3288034271601
 31
0.0
1001
ACAD
1000
ASC_BOUNDS
1002
{
1070
    19
1002
}
  0
ARC
  5
3F5A3
102
{ACAD_REACTORS
330
3F7B6
102
}
330
2
100
AcDbEntity
  8
0
  6
Continuous
 62
     7
100
AcDbCircle
 10
83.80409736322008
 20
126.3288034271601
 30
0.0
 40
1.0
100
AcDbArc
 50
90.0
 51
180.0
1001
ACAD
1000
ASC_BOUNDS
1002
{
1070
    19
1002
}
  0
LINE
  5
3F5A4
102
{ACAD_REACTORS
330
3F7B6
102
}
330
2
100
AcDbEntity
  8
0
 62
     7
100
AcDbLine
 10
83.20409736322018
 20
118.4288034271601
 30
0.0
 11
83.20409736322018
 21
120.1359831041393
 31
0.0
1001
ACAD
1000
ASC_BOUNDS
1002
{
1070
    19
1002
}
  0
LINE
  5
3F5A5
102
{ACAD_REACTORS
330
3F7B6
102
}
330
2
100
AcDbEntity
  8
0
  6
Continuous
100
AcDbLine
 10
82.19380879492291
 20
117.8288034271601
 30
0.0
 11
82.60409736322003
 21
117.8288034271601
 31
0.0
1001
ACAD
1000
ASC_BOUNDS
1002
{
1070
    19
1002
}
  0
ARC
  5
3F5A6
102
{ACAD_REACTORS
330
3F7B6
102
}
330
2
100
AcDbEntity
  8
0
  6
Continuous
100
AcDbCircle
 10
82.60409736322003
 20
118.4288034271601
 30
0.0
 40
0.6
100
AcDbArc
 50
270.0
 51
0.0
1001
ACAD
1000
ASC_BOUNDS
1002
{
1070
    19
1002
}
  0
LINE
  5
3F5A7
102
{ACAD_REACTORS
330
3F7B6
102
}
330
2
100
AcDbEntity
  8
0
  6
Continuous
100
AcDbLine
 10
81.80409736322008
 20
118.0538034271601
 30
0.0
 11
82.19380879492314
 21
117.8288034271601
 31
0.0
  0
LINE
  5
3F5A8
102
{ACAD_REACTORS
330
3F7B6
102
}
330
2
100
AcDbEntity
  8
0
  6
Continuous
100
AcDbLine
 10
82.80409736322372
 20
120.8288034271605
 30
0.0
 11
83.20409736322018
 21
120.1359831041393
 31
0.0
  0
LINE
  5
3F5A9
330
2
100
AcDbEntity
  8
0
  6
Continuous
100
AcDbLine
 10
82.19380879492291
 20
73.8288034271601
 30
0.0
 11
82.60409736322003
 21
73.8288034271601
 31
0.0
1001
ACAD
1000
ASC_BOUNDS
1002
{
1070
    19
1002
}
  0
ARC
  5
3F5AA
330
2
100
AcDbEntity
  8
0
  6
Continuous
100
AcDbCircle
 10
82.60409736322003
 20
73.22880342716008
 30
0.0
 40
0.6
100
AcDbArc
 50
70.52877936551387
 51
90.0
1001
ACAD
1000
ASC_BOUNDS
1002
{
1070
    19
1002
}
  0
LINE
  5
3F5AB
330
2
100
AcDbEntity
  8
0
  6
Continuous
100
AcDbLine
 10
81.80409736322008
 20
73.60380342716007
 30
0.0
 11
82.19380879492314
 21
73.8288034271601
 31
0.0
  0
LINE
  5
3F5AC
330
2
100
AcDbEntity
  8
0
  6
Continuous
100
AcDbLine
 10
84.30409736322053
 20
87.77880342716002
 30
0.0
 11
82.80409736322008
 21
86.17880342716018
 31
0.0
  0
LINE
  5
3F5AD
330
2
100
AcDbEntity
  8
0
  6
Continuous
 62
     7
100
AcDbLine
 10
82.19380879492314
 20
73.8288034271601
 30
0.0
 11
82.19380879492314
 21
95.82880342716009
 31
0.0
  0
HATCH
  5
3F7B6
330
2
100
AcDbEntity
  8
0
  6
Continuous
 62
     4
100
AcDbHatch
 10
0.0
 20
0.0
 30
0.0
210
0.0
220
0.0
230
1.0
  2
ANSI31
 70
     0
 71
     1
 91
        5
 92
        7
 72
     1
 73
     1
 93
       47
 10
118.8040973632205
 20
109.3368034271675
 42
0.0
 10
125.8040973632205
 20
109.3368034271675
 42
0.0
 10
125.8040973632205
 20
109.0368034271682
 42
0.0
 10
127.3040973632201
 20
109.0368034271682
 42
0.0
 10
127.3040973632201
 20
118.7788034271602
 42
0.0
 10
127.2540973632199
 20
118.8288034271604
 42
0.0
 10
126.3040973632205
 20
118.8288034271604
 42
0.0
 10
126.304097363221
 20
125.2288034271596
 42
0.0
 10
125.7040973632211
 20
125.8288034271604
 42
0.0
 10
109.2005213675966
 20
125.8288034271604
 42
-0.435310765876401
 10
108.8015430806321
 20
126.2573748557318
 42
0.4353107658766958
 10
107.80409736322
 20
127.3288034271604
 42
0.0
 10
103.7272668451483
 20
127.3288034271604
 42
0.2679491924311011
 10
103.2942541432561
 20
127.0788034271604
 42
0.0
 10
100.9040973632195
 20
122.9389304460824
 42
0.0
 10
100.9040973632195
 20
122.3288034271604
 42
0.0
 10
95.90409736321953
 20
122.3288034271604
 42
0.0
 10
95.90409736321953
 20
122.9389304460824
 42
0.0
 10
93.51394058318396
 20
127.0788034271604
 42
0.2679491924311468
 10
93.08092788129171
 20
127.3288034271604
 42
0.0
 10
83.80409736322008
 20
127.3288034271601
 42
0.4142135623730956
 10
82.80409736322008
 20
126.3288034271601
 42
0.0
 10
82.80409736322008
 20
120.8288034271668
 42
0.0
 10
83.20409736322018
 20
120.1359831041393
 42
0.0
 10
83.20409736322003
 20
118.4288034271601
 42
-0.4142135623730951
 10
82.60409736322003
 20
117.8288034271601
 42
0.0
 10
82.19380879492314
 20
117.8288034271601
 42
0.0
 10
81.80409736322038
 20
118.0538034271599
 42
0.0
 10
17.92551972372109
 20
108.7381781288743
 42
0.3724076148657622
 10
16.40409736321956
 20
106.9787884861546
 42
0.0
 10
16.40409736321956
 20
104.7514531579704
 42
0.0
 10
17.1361481707886
 20
104.3288034271604
 42
0.0
 10
22.28448212074956
 20
104.3288034271604
 42
0.0
 10
23.40409736301946
 20
104.6288034271597
 42
0.0
 10
25.40409736321955
 20
104.6288034271597
 42
0.0
 10
25.40409063966225
 20
104.0980816738576
 42
0.0
 10
25.55845038315919
 20
103.8288034271604
 42
0.0
 10
51.40409736321953
 20
103.8288034271604
 42
0.0
 10
52.78973800927497
 20
103.0288034271602
 42
0.0
 10
59.40409736321953
 20
103.0288034271602
 42
0.0
 10
59.40409736321953
 20
102.5788034271604
 42
0.0
 10
96.40409736321954
 20
102.5788034271604
 42
0.0
 10
97.99181060349146
 20
99.82880342716043
 42
0.0
 10
110.1956581807853
 20
99.82880342716043
 42
0.0
 10
113.8040973632201
 20
106.0788034271586
 42
0.0
 10
118.30409736322
 20
106.0788034271586
 42
0.0
 10
118.8040973632203
 20
106.5788034271589
 42
0.0
 97
       47
330
3EC29
330
3EC34
330
3EC26
330
3EC3C
330
3EC3D
330
3EC27
330
3EC40
330
3EC42
330
3EC2B
330
3EC20
330
3EC1F
330
3EC1E
330
3EC07
330
3EC02
330
3EC06
330
3EC03
330
3EC04
330
3EC01
330
3EC00
330
3EBFF
330
3F5A3
330
3F5A2
330
3F5A8
330
3F5A4
330
3F5A6
330
3F5A5
330
3F5A7
330
3EBEE
330
3EBEF
330
3EBF1
330
3EC0F
330
3EBF9
330
3EBF8
330
3EBFB
330
3EBF4
330
3EBFA
330
3EBF2
330
3EBFE
330
3EBF3
330
3EBFD
330
3EBF0
330
3ECA0
330
3EC24
330
3EC48
330
3EC46
330
3EC33
330
3EC32
 92
       23
 72
     0
 73
     1
 93
        4
 10
51.40409736321953
 20
103.8288034271604
 10
25.55845038315919
 20
103.8288034271604
 10
26.01703846560622
 20
103.0288034271602
 10
51.40409736321953
 20
103.0288034271602
 97
        3
330
3EBFA
330
3EBF3
330
3EBFC
 92
        7
 72
     0
 73
     1
 93
       10
 10
136.8040973632201
 20
125.3288034271604
 10
136.3040973632201
 20
125.8288034271604
 10
134.90409736322
 20
125.8288034271604
 10
134.3040973632201
 20
125.2288034271596
 10
134.3040973632201
 20
118.8288034271604
 10
133.3540973632202
 20
118.8288034271604
 10
133.3040973632201
 20
118.7788034271602
 10
133.3040973632201
 20
109.0368034271682
 10
136.3040973632201
 20
109.0368034271682
 10
136.8040973632201
 20
109.325478561762
 97
       10
330
3EC35
330
3EC2B
330
3EC3F
330
3EC2F
330
3EC27
330
3EC39
330
3EC31
330
3EC26
330
3EC45
330
3EC2C
 92
        7
 72
     0
 73
     1
 93
        4
 10
133.3040973632201
 20
118.7788034271602
 10
132.8540973632202
 20
118.3288034271604
 10
132.8540973632202
 20
109.0368034271682
 10
133.3040973632201
 20
109.0368034271682
 97
        3
330
3EC39
330
3EC30
330
3EC26
 92
        7
 72
     0
 73
     1
 93
        4
 10
127.7540973632199
 20
118.3288034271604
 10
127.3040973632201
 20
118.7788034271602
 10
127.3040973632201
 20
109.0368034271682
 10
127.7540973632203
 20
109.0368034271682
 97
        3
330
3EC3D
330
3EC26
330
3EC3B
 75
     1
 76
     1
 52
0.0
 41
1.0
 77
     0
 78
     1
 53
45.0
 43
0.0
 44
0.0
 45
-2.245064030267287
 46
2.245064030267288
 79
     0
 47
0.0220213917461755
 98
        5
 10
90.16260255659791
 20
109.2256521591227
 10
48.1953797297383
 20
103.3774331581396
 10
134.2430705024176
 20
115.1712532253436
 10
133.1524970973505
 20
115.6110921350484
 10
127.5554848031606
 20
116.2717343705219
1001
GRADIENTCOLOR1ACI
1070
     5
1001
GRADIENTCOLOR2ACI
1070
     2
1001
ACAD
1010
0.0
1020
0.0
1030
0.0
  0
VIEWPORT
  5
2C7EC
102
{ACAD_XDICTIONARY
360
2C7ED
102
}
330
1B
100
AcDbEntity
 67
     1
  8
0
  6
Continuous
 62
     7
100
AcDbViewport
 10
212.4908200734394
 20
97.5
 30
0.0
 40
464.9816401468789
 41
210.0
 68
     1
 69
     1
 12
212.4908200734394
 22
97.5
 13
0.0
 23
0.0
 14
2.0
 24
2.0
 15
2.0
 25
2.0
 16
0.0
 26
0.0
 36
1.0
 17
0.0
 27
0.0
 37
0.0
 42
50.0
 43
0.0
 44
0.0
 45
210.0
 50
0.0
 51
0.0
 72
  1000
 90
   823328
  1

281
     0
 71
     1
 74
     0
110
0.0
120
0.0
130
0.0
111
1.0
121
0.0
131
0.0
112
0.0
122
1.0
132
0.0
 79
     0
146
0.0
170
     0
 61
     5
348
2E
292
     1
282
     1
141
0.0
142
0.0
 63
   250
421
  3355443
  0
ENDSEC
  0
SECTION
  2
OBJECTS
  0
DICTIONARY
  5
B
330
0
100
AcDbDictionary
281
     1
  3
ACAD_ASSOCNETWORK
350
3C0B2
  3
ACAD_CIP_PREVIOUS_PRODUCT_INFO
350
BE4
  3
ACAD_COLOR
350
3F
  3
ACAD_DETAILVIEWSTYLE
350
BDC
  3
ACAD_GROUP
350
3A
  3
ACAD_LAYOUT
350
17
  3
ACAD_MATERIAL
350
D
  3
ACAD_MLEADERSTYLE
350
42
  3
ACAD_MLINESTYLE
350
3B
  3
ACAD_PLOTSETTINGS
350
3C
  3
ACAD_PLOTSTYLENAME
350
A
  3
ACAD_SCALELIST
350
40
  3
ACAD_SECTIONVIEWSTYLE
350
BDA
  3
ACAD_TABLESTYLE
350
41
  3
ACAD_VISUALSTYLE
350
2F
  3
ACDB_RECOMPOSE_DATA
350
3F8BB
  3
AcDbVariableDictionary
350
BB8
  3
AEC_PROPERTY_SET_DEFS
350
24C9
  0
DICTIONARY
  5
31
330
2C
100
AcDbDictionary
280
     1
281
     1
  0
DICTIONARY
  5
22
330
21
100
AcDbDictionary
280
     1
281
     1
  3
ACAD_LAYERSTATES
360
23
  0
DICTIONARY
  5
7
330
6
100
AcDbDictionary
280
     1
281
     1
  3
ADSK_XREC_LAYER_RECONCILED
360
8
  0
DICTIONARY
  5
3
330
2
100
AcDbDictionary
280
     1
281
     1
  3
ACAD_ASSOCNETWORK
360
3C4DA
  3
ACAD_SORTENTS
360
BB0
  0
DICTIONARY
  5
3ECB5
330
3ECB4
100
AcDbDictionary
280
     1
281
     1
  0
DICTIONARY
  5
2C7ED
330
2C7EC
100
AcDbDictionary
280
     1
281
     1
  3
ASDK_XREC_ANNOTATION_SCALE_INFO
360
2C7EE
  0
DICTIONARY
  5
3C0B2
102
{ACAD_REACTORS
330
B
102
}
330
B
100
AcDbDictionary
281
     1
  3
ACAD_ASSOCNETWORK
350
3C0B3
  0
XRECORD
  5
BE4
102
{ACAD_REACTORS
330
B
102
}
330
B
100
AcDbXrecord
280
     1
300
ACD
300
2014
300
ACD_F_S
  0
DICTIONARY
  5
3F
102
{ACAD_REACTORS
330
B
102
}
330
B
100
AcDbDictionary
281
     1
  0
DICTIONARY
  5
BDC
102
{ACAD_REACTORS
330
B
102
}
330
B
100
AcDbDictionary
281
     1
  3
Imperial24
350
283CD
  3
Metric50
350
BDD
  0
DICTIONARY
  5
3A
102
{ACAD_REACTORS
330
B
102
}
330
B
100
AcDbDictionary
281
     1
  0
DICTIONARY
  5
17
102
{ACAD_REACTORS
330
B
102
}
330
B
100
AcDbDictionary
281
     1
  3
Model
350
16
  3
배치1
350
1E
  0
DICTIONARY
  5
D
102
{ACAD_REACTORS
330
B
102
}
330
B
100
AcDbDictionary
281
     1
  3
ByBlock
350
3E
  3
ByLayer
350
3D
  3
Global
350
C
  0
DICTIONARY
  5
42
102
{ACAD_REACTORS
330
B
102
}
330
B
100
AcDbDictionary
281
     1
  3
Standard
350
BD9
  0
DICTIONARY
  5
3B
102
{ACAD_REACTORS
330
B
102
}
330
B
100
AcDbDictionary
281
     1
  3
Standard
350
43
  0
DICTIONARY
  5
3C
102
{ACAD_REACTORS
330
B
102
}
330
B
100
AcDbDictionary
281
     1
  0
ACDBDICTIONARYWDFLT
  5
A
102
{ACAD_REACTORS
330
B
102
}
330
B
100
AcDbDictionary
281
     1
  3
Normal
350
9
100
AcDbDictionaryWithDefault
340
9
  0
DICTIONARY
  5
40
102
{ACAD_REACTORS
330
B
102
}
330
B
100
AcDbDictionary
281
     1
  3
A0
350
48
  3
A1
350
49
  3
A2
350
4A
  3
A3
350
4B
  3
A4
350
4C
  3
A5
350
4D
  3
A6
350
4E
  3
A7
350
4F
  3
A8
350
50
  3
A9
350
51
  3
B0
350
52
  3
B1
350
53
  3
B2
350
54
  3
B3
350
55
  3
B4
350
56
  3
B5
350
57
  3
B6
350
58
  0
DICTIONARY
  5
BDA
102
{ACAD_REACTORS
330
B
102
}
330
B
100
AcDbDictionary
281
     1
  3
Imperial24
350
283CC
  3
Metric50
350
BDB
  0
DICTIONARY
  5
41
102
{ACAD_REACTORS
330
B
102
}
330
B
100
AcDbDictionary
281
     1
  3
Standard
350
44
  0
DICTIONARY
  5
2F
102
{ACAD_REACTORS
330
B
102
}
330
B
100
AcDbDictionary
281
     1
  3
2dWireframe
350
2E
  3
3D Hidden
350
1A64
  3
3dWireframe
350
47
  3
Basic
350
BC7
  3
Brighten
350
BCC
  3
ColorChange
350
BD0
  3
Conceptual
350
BCA
  3
Dim
350
BCB
  3
EdgeColorOff
350
BD8
  3
Facepattern
350
BCF
  3
Flat
350
BC3
  3
FlatWithEdges
350
BC4
  3
Gouraud
350
BC5
  3
GouraudWithEdges
350
BC6
  3
Hidden
350
BC9
  3
JitterOff
350
BD6
  3
Linepattern
350
BCE
  3
OverhangOff
350
BD7
  3
Realistic
350
46
  3
Shaded
350
BD5
  3
Shaded with edges
350
BD4
  3
Shades of Gray
350
BD1
  3
Sketchy
350
BD2
  3
Thicken
350
BCD
  3
Wireframe
350
BC8
  3
X-Ray
350
BD3
  0
XRECORD
  5
3F8BB
102
{ACAD_REACTORS
330
B
102
}
330
B
100
AcDbXrecord
280
     1
 90
        1
330
44
330
BDB
330
BDD
330
283CC
330
283CD
  0
DICTIONARY
  5
BB8
102
{ACAD_REACTORS
330
B
102
}
330
B
100
AcDbDictionary
281
     1
  3
CANNOSCALE
350
BBE
  3
CMLEADERSTYLE
350
BBA
  3
CTABLESTYLE
350
BB9
  3
CVIEWDETAILSTYLE
350
BBB
  3
CVIEWSECTIONSTYLE
350
BBC
  3
DIMASSOC
350
C3B
  3
HIDETEXT
350
C39
  3
HPCOLOR
350
FF3
  3
INDEXCTL
350
C38
  3
LAYEREVAL
350
BC0
  3
LAYERNOTIFY
350
BC1
  3
LIGHTINGUNITS
350
BBF
  3
MSLTSCALE
350
BBD
  3
SOLIDHIST
350
C3C
  3
SORTENTS
350
C37
  0
DICTIONARY
  5
24C9
102
{ACAD_REACTORS
330
B
102
}
330
B
100
AcDbDictionary
281
     1
  0
DICTIONARY
  5
23
102
{ACAD_REACTORS
330
22
102
}
330
22
100
AcDbDictionary
281
     1
  0
XRECORD
  5
8
102
{ACAD_REACTORS
330
7
102
}
330
7
100
AcDbXrecord
280
     1
290
     1
  0
DICTIONARY
  5
3C4DA
102
{ACAD_REACTORS
330
3
102
}
330
3
100
AcDbDictionary
281
     1
  3
ACAD_ASSOCNETWORK
350
3C4DB
  0
SORTENTSTABLE
  5
BB0
102
{ACAD_REACTORS
330
3
102
}
330
3
100
AcDbSortentsTable
330
2
331
3C9DD
  5
3C9E0
331
3C9D9
  5
3C9DC
331
3EC3E
  5
3EC45
331
3CA1C
  5
3CA1F
331
3EC3A
  5
3EC41
331
3EBFF
  5
3EC03
331
3EC75
  5
3EC7C
331
3CA18
  5
3CA1B
331
3EC32
  5
3EC3A
331
3CA14
  5
3CA17
331
3EBFB
  5
3EBFF
331
3EC71
  5
3EC78
331
3CA10
  5
3CA13
331
3C9D5
  5
3C9D8
331
3C9D1
  5
3C9D4
331
3C9CD
  5
3C9D0
331
3C2F6
  5
3C936
331
3EC6D
  5
3EC74
331
3EBF7
  5
3EBFB
331
3EC2E
  5
3EC35
331
3ECA0
  5
3EEFB
331
3EC2A
  5
3EC31
331
3EBF3
  5
3EBF7
331
3EC69
  5
3EC70
331
3CA0C
  5
3CA0F
331
3EC26
  5
3EC2D
331
3CA08
  5
3CA0B
331
3EBEF
  5
3EBF3
331
3EC65
  5
3EC6C
331
3EBEB
  5
3EBEE
331
3EC61
  5
3EC68
331
3CA04
  5
3CA07
331
3EC98
  5
3EEF9
331
3CA00
  5
3CA03
331
3C2EE
  5
3C2F6
331
3C2EA
  5
3C2EA
331
3EF03
  5
3F5A1
331
3EC94
  5
3ECA1
331
3EC1E
  5
3EC25
331
3EBE7
  5
3EBE9
331
3EC5D
  5
3EC64
331
3F5AD
  5
3F73A
331
3EEFF
  5
3F5A0
331
3EC90
  5
3EC97
331
3C9FC
  5
3C9FF
331
3EBE3
  5
3EBE5
331
3EC59
  5
3EC60
331
3F5A9
  5
3F728
331
3EC55
  5
3EC5C
331
3C9F8
  5
3C9FB
331
3EC8C
  5
3EC93
331
3EEFB
  5
3F01F
331
3EC88
  5
3EC8F
331
3EC12
  5
3EC1F
331
3EC51
  5
3EC58
331
3C9F4
  5
3C9F7
331
3C9F0
  5
3C9F3
331
3F5A5
  5
3F5AC
331
3F5A1
  5
3F5A8
331
3EC0E
  5
3EC14
331
3EC4D
  5
3EC54
331
3EC84
  5
3EC8B
331
3C9EC
  5
3C9EF
331
3CA2B
  5
3EBDE
331
3EC0A
  5
3EC0E
331
3EC80
  5
3EC87
331
3EC06
  5
3EC0A
331
3EC45
  5
3EC50
331
3EC7C
  5
3EC83
331
3C9E8
  5
3C9EB
331
3CA27
  5
3CA2A
331
3C9E4
  5
3C9E7
331
3CA23
  5
3CA26
331
3EC02
  5
3EC06
331
3EC41
  5
3EC48
331
3EC78
  5
3EC7F
331
3C9E0
  5
3C9E3
331
3C9DC
  5
3C9DF
331
3C9D8
  5
3C9DB
331
3CA1F
  5
3CA22
331
3EC3D
  5
3EC44
331
3EC39
  5
3EC40
331
3CA1B
  5
3CA1E
331
3EC35
  5
3EC3D
331
3CA17
  5
3CA1A
331
3EBFE
  5
3EC02
331
3EC74
  5
3EC7B
331
3EC70
  5
3EC77
331
3EBFA
  5
3EBFE
331
3CA13
  5
3CA16
331
3EC31
  5
3EC39
331
3C9D4
  5
3C9D7
331
3C9D0
  5
3C9D3
331
3C2F5
  5
3C2F8
331
3EC2D
  5
3EC34
331
3EBF6
  5
3EBFA
331
3EC6C
  5
3EC73
331
3CA0F
  5
3CA12
331
3EC9F
  5
3EEFA
331
3EC29
  5
3EC30
331
3CA0B
  5
3CA0E
331
3EBF2
  5
3EBF6
331
3EC68
  5
3EC6F
331
3EC64
  5
3EC6B
331
3EBEE
  5
3EBF2
331
3CA07
  5
3CA0A
331
3EC25
  5
3EC2C
331
3EBEA
  5
3EBEC
331
3EC60
  5
3EC67
331
3CA03
  5
3CA06
331
3C2ED
  5
3C2F5
331
3EC97
  5
3EEF8
331
3EC93
  5
3ECA0
331
3C9FF
  5
3CA02
331
3EBE6
  5
3EBE8
331
3EC5C
  5
3EC63
331
3F5AC
  5
3F739
331
3EBE2
  5
3EBE4
331
3EC58
  5
3EC5F
331
3C9FB
  5
3C9FE
331
3EC8F
  5
3EC96
331
3EEFE
  5
3F59F
331
3EC8B
  5
3EC92
331
3EEFA
  5
3EF04
331
3EBDE
  5
3EBE1
331
3EC54
  5
3EC5B
331
3C9F7
  5
3C9FA
331
3F5A8
  5
3F724
331
3C9F3
  5
3C9F6
331
3EC50
  5
3EC57
331
3F5A4
  5
3F5AB
331
3EC87
  5
3EC8E
331
3F5A0
  5
3F5A7
331
3C9EF
  5
3C9F2
331
3EC0D
  5
3EC13
331
3EC83
  5
3EC8A
331
3EC7F
  5
3EC86
331
3EC09
  5
3EC0D
331
3EC48
  5
3EC53
331
3C9EB
  5
3C9EE
331
3CA2A
  5
3EBDD
331
3C9E7
  5
3C9EA
331
3CA26
  5
3CA29
331
3EC05
  5
3EC09
331
3EC44
  5
3EC4F
331
3EC7B
  5
3EC82
331
3C9E3
  5
3C9E6
331
3CA22
  5
3CA25
331
3EC01
  5
3EC05
331
3EC40
  5
3EC47
331
3C9DF
  5
3C9E2
331
3C9DB
  5
3C9DE
331
3EC3C
  5
3EC43
331
3CA1E
  5
3CA21
331
3CA1A
  5
3CA1D
331
3EC38
  5
3EC3F
331
3EC77
  5
3EC7E
331
3EC73
  5
3EC7A
331
3EBFD
  5
3EC01
331
3CA16
  5
3CA19
331
3EC34
  5
3EC3C
331
3EC30
  5
3EC38
331
3EBF9
  5
3EBFD
331
3CA12
  5
3CA15
331
3C9D7
  5
3C9DA
331
3C9D3
  5
3C9D6
331
3C2F8
  5
3C9CF
331
3C9CF
  5
3C9D2
331
3EC6F
  5
3EC76
331
3EC2C
  5
3EC33
331
3CA0E
  5
3CA11
331
3EBF5
  5
3EBF9
331
3EC6B
  5
3EC72
331
3EC67
  5
3EC6E
331
3EBF1
  5
3EBF5
331
3CA0A
  5
3CA0D
331
3EC28
  5
3EC2F
331
3EC24
  5
3EC28
331
3EC63
  5
3EC6A
331
3CA06
  5
3CA09
331
3EC20
  5
3EC27
331
3CA02
  5
3CA05
331
3EBE9
  5
3EBEB
331
3EC96
  5
3EEF5
331
3EC5F
  5
3EC66
331
3EBE5
  5
3EBE7
331
3EC5B
  5
3EC62
331
3C9FE
  5
3CA01
331
3EC92
  5
3EC9F
331
3EC8E
  5
3EC95
331
3EEFD
  5
3F59E
331
3EBE1
  5
3EBE3
331
3EC57
  5
3EC5E
331
3C9FA
  5
3C9FD
331
3F5AB
  5
3F738
331
3EC8A
  5
3EC91
331
3EEF9
  5
3EF03
331
3EC14
  5
3EC24
331
3C9F6
  5
3C9F9
331
3EBDD
  5
3EBE0
331
3EC53
  5
3EC5A
331
3C9F2
  5
3C9F5
331
3F5A7
  5
3F723
331
3F5A3
  5
3F5AA
331
3EEF5
  5
3EEFE
331
3EC4F
  5
3EC56
331
3EC86
  5
3EC8D
331
3EC0C
  5
3EC12
331
3EC82
  5
3EC89
331
3F020
  5
3F5A4
331
3C9EE
  5
3C9F1
331
3F59F
  5
3F5A6
331
3EC47
  5
3EC52
331
3EC7E
  5
3EC85
331
3C9EA
  5
3C9ED
331
3CA29
  5
3D2E3
331
3EC08
  5
3EC0C
331
3C9E6
  5
3C9E9
331
3CA25
  5
3CA28
331
3EC04
  5
3EC08
331
3EC43
  5
3EC4E
331
3EC7A
  5
3EC81
331
3EC00
  5
3EC04
331
3C9E2
  5
3C9E5
331
3CA21
  5
3CA24
331
3C9DE
  5
3C9E1
331
3C9DA
  5
3C9DD
331
3EC3F
  5
3EC46
331
3CA1D
  5
3CA20
331
3EC3B
  5
3EC42
331
3EC76
  5
3EC7D
331
3CA19
  5
3CA1C
331
3EC37
  5
3EC3E
331
3EC33
  5
3EC3B
331
3EBFC
  5
3EC00
331
3EC72
  5
3EC79
331
3CA15
  5
3CA18
331
3CA11
  5
3CA14
331
3EBF8
  5
3EBFC
331
3C9D6
  5
3C9D9
331
3C9D2
  5
3C9D5
331
3C9CE
  5
3C9D1
331
3C2F7
  5
3C9CE
331
3F7B6
  5
3EBF1
331
3EC2F
  5
3EC37
331
3EC6E
  5
3EC75
331
3EC6A
  5
3EC71
331
3EBF4
  5
3EBF8
331
3CA0D
  5
3CA10
331
3EC2B
  5
3EC32
331
3ECA1
  5
3EEFC
331
3EC27
  5
3EC2E
331
3EBF0
  5
3EBF4
331
3EC66
  5
3EC6D
331
3CA09
  5
3CA0C
331
3CA05
  5
3CA08
331
3EBEC
  5
3EBF0
331
3EC62
  5
3EC69
331
3EBE8
  5
3EBEA
331
3CA01
  5
3CA04
331
3C2EF
  5
3C2F7
331
3EF04
  5
3F5A2
331
3EC5E
  5
3EC65
331
3EC1F
  5
3EC26
331
3EC95
  5
3EEF4
331
3EC91
  5
3EC98
331
3EBE4
  5
3EBE6
331
3EC5A
  5
3EC61
331
3C9FD
  5
3CA00
331
3F5AA
  5
3F737
331
3EC8D
  5
3EC94
331
3EEFC
  5
3F020
331
3C9F9
  5
3C9FC
331
3EBE0
  5
3EBE2
331
3EC56
  5
3EC5D
331
3EC52
  5
3EC59
331
3C9F5
  5
3C9F8
331
3EC13
  5
3EC20
331
3EC89
  5
3EC90
331
3EEF8
  5
3EEFF
331
3C9F1
  5
3C9F4
331
3F5A6
  5
3F5AD
331
3EEF4
  5
3EEFD
331
3EC0F
  5
3EC1E
331
3EC4E
  5
3EC55
331
3EC85
  5
3EC8C
331
3F5A2
  5
3F5A9
331
3F59E
  5
3F5A5
331
3C9ED
  5
3C9F0
331
3EC0B
  5
3EC0F
331
3EC81
  5
3EC88
331
3F01F
  5
3F5A3
331
3C9E9
  5
3C9EC
331
3CA28
  5
3CA2B
331
3EC07
  5
3EC0B
331
3EC46
  5
3EC51
331
3EC7D
  5
3EC84
331
3EC03
  5
3EC07
331
3EC42
  5
3EC4D
331
3EC79
  5
3EC80
331
3C9E5
  5
3C9E8
331
3CA24
  5
3CA27
331
3C9E1
  5
3C9E4
331
3CA20
  5
3CA23
  0
XRECORD
  5
2C7EE
102
{ACAD_REACTORS
330
2C7ED
102
}
330
2C7ED
100
AcDbXrecord
280
     1
 90
        1
340
48
  0
ACDBASSOCNETWORK
  5
3C0B3
102
{ACAD_REACTORS
330
3C0B2
102
}
330
3C0B2
100
AcDbAssocAction
 90
        2
 90
        0
330
0
360
0
 90
        0
 90
        0
 90
        0
 90
        0
 90
        0
 90
        0
 90
        0
100
AcDbAssocNetwork
 90
        0
 90
        6
 90
        1
330
3C4DB
 90
        0
  0
ACDBDETAILVIEWSTYLE
  5
283CD
102
{ACAD_XDICTIONARY
360
3F8B9
102
}
102
{ACAD_REACTORS
330
BDC
102
}
330
BDC
100
AcDbModelDocViewStyle
 70
     0
  3
Imperial24
290
     0
100
AcDbDetailViewStyle
 70
     0
 71
     0
 90
        3
 71
     1
340
25
 62
   256
 40
0.24
340
0
 62
   256
 40
0.24
300

 40
0.36
280
     3
 71
     2
340
14
 90
       25
 62
   256
 71
     3
340
25
 62
   256
 40
0.24
 90
        1
 40
0.75
 90
        1
300
%<\AcVar ViewType \f "%tc1">% %<\AcVar ViewDetailId>%\PSCALE %<\AcVar ViewScale \f "%sn">%
 71
     4
340
14
 90
       25
 62
   256
340
14
 90
       25
 62
   256
280
     0
  0
ACDBDETAILVIEWSTYLE
  5
BDD
102
{ACAD_XDICTIONARY
360
3F8B5
102
}
102
{ACAD_REACTORS
330
BDC
102
}
330
BDC
100
AcDbModelDocViewStyle
 70
     0
  3
Metric50
290
     0
100
AcDbDetailViewStyle
 70
     0
 71
     0
 90
        3
 71
     1
340
25
 62
   256
 40
5.0
340
0
 62
   256
 40
5.0
300

 40
0.0
280
     1
 71
     2
340
14
 90
       25
 62
   256
 71
     3
340
25
 62
   256
 40
5.0
 90
        0
 40
15.0
 90
        1
300
%<\AcVar ViewDetailId>% (%<\AcVar ViewScale \f "%sn">%)
 71
     4
340
14
 90
       25
 62
   256
340
14
 90
       25
 62
   256
280
     0
  0
LAYOUT
  5
16
102
{ACAD_XDICTIONARY
360
18
102
}
102
{ACAD_REACTORS
330
17
102
}
330
17
100
AcDbPlotSettings
  1

  2
DWG To PDF.pc3
  4
ISO_expand_A4_(297.00_x_210.00_MM)
  6

 40
5.793749809265136
 41
10.79374980926513
 42
5.79376220703125
 43
10.79374694824219
 44
297.0
 45
210.0
 46
10.74179700476176
 47
0.0
 48
214.2303289092835
 49
-5.650030662565313
140
426.8811481846322
141
146.1562857013982
142
1.0
143
0.8057125389846563
 70
 11956
 72
     1
 73
     0
 74
     4
  7
ksm0910.ctb
 75
     0
147
1.241137442468229
 76
     0
 77
     2
 78
   300
148
-214.2303289092835
149
5.650030662565313
100
AcDbLayout
  1
Model
 70
     1
 71
     0
 10
0.0
 20
0.0
 11
12.0
 21
9.0
 12
0.0
 22
0.0
 32
0.0
 14
0.0
 24
0.0
 34
0.0
 15
0.0
 25
0.0
 35
0.0
146
0.0
 13
0.0
 23
0.0
 33
0.0
 16
1.0
 26
0.0
 36
0.0
 17
0.0
 27
1.0
 37
0.0
 76
     0
330
2
331
2D
1001
ACAD_PSEXT
1000
DWG To PDF.pc3
1000
DWG To PDF
1000
파일
1000

1070
     0
  0
LAYOUT
  5
1E
102
{ACAD_XDICTIONARY
360
1F
102
}
102
{ACAD_REACTORS
330
17
102
}
330
17
100
AcDbPlotSettings
  1

  2
none_device
  4
ISO_A4_(210.00_x_297.00_MM)
  6

 40
7.5
 41
20.0
 42
7.5
 43
20.0
 44
210.0
 45
297.0
 46
0.0
 47
0.0
 48
0.0
 49
0.0
140
0.0
141
0.0
142
1.0
143
1.0
 70
   688
 72
     1
 73
     1
 74
     5
  7
ksm0910.ctb
 75
    16
147
1.0
 76
     0
 77
     2
 78
   300
148
0.0
149
0.0
100
AcDbLayout
  1
배치1
 70
     1
 71
     1
 10
-20.0
 20
-7.5
 11
277.0
 21
202.5
 12
0.0
 22
0.0
 32
0.0
 14
1.000000000000000E+20
 24
1.000000000000000E+20
 34
1.000000000000000E+20
 15
-1.000000000000000E+20
 25
-1.000000000000000E+20
 35
-1.000000000000000E+20
146
0.0
 13
0.0
 23
0.0
 33
0.0
 16
1.0
 26
0.0
 36
0.0
 17
0.0
 27
1.0
 37
0.0
 76
     0
330
1B
331
2C7EC
1001
ACAD_PSEXT
1000
없음
1000
없음
1000
해당 없음
1000
배치가 새로운 플로터 구성을 선택할 때까지 플롯되지 않습니다.
1070
     0
  0
MATERIAL
  5
3E
102
{ACAD_REACTORS
330
D
102
}
330
D
100
AcDbMaterial
  1
ByBlock
 94
       63
  0
MATERIAL
  5
3D
102
{ACAD_REACTORS
330
D
102
}
330
D
100
AcDbMaterial
  1
ByLayer
 94
       63
  0
MATERIAL
  5
C
102
{ACAD_XDICTIONARY
360
E
102
}
102
{ACAD_REACTORS
330
D
102
}
330
D
100
AcDbMaterial
  1
Global
 43
0.0007999999797903
 43
0.0
 43
0.0
 43
0.0
 43
0.0
 43
0.0007999999797903
 43
0.0
 43
0.0
 43
0.0
 43
0.0
 43
1.0
 43
0.0
 43
0.0
 43
0.0
 43
0.0
 43
1.0
 49
0.0007999999797903
 49
0.0
 49
0.0
 49
0.0
 49
0.0
 49
0.0007999999797903
 49
0.0
 49
0.0
 49
0.0
 49
0.0
 49
1.0
 49
0.0
 49
0.0
 49
0.0
 49
0.0
 49
1.0
142
0.0007999999797903
142
0.0
142
0.0
142
0.0
142
0.0
142
0.0007999999797903
142
0.0
142
0.0
142
0.0
142
0.0
142
1.0
142
0.0
142
0.0
142
0.0
142
0.0
142
1.0
144
0.0007999999797903
144
0.0
144
0.0
144
0.0
144
0.0
144
0.0007999999797903
144
0.0
144
0.0
144
0.0
144
0.0
144
1.0
144
0.0
144
0.0
144
0.0
144
0.0
144
1.0
 94
       63
1001
ACAD
1070
    -1
1070
     3
1070
     0
1000

1071
        0
1070
     0
  0
MLEADERSTYLE
  5
BD9
102
{ACAD_REACTORS
330
42
102
}
330
42
100
AcDbMLeaderStyle
179
     2
170
     2
171
     1
172
     0
 90
        2
 40
0.0
 41
0.0
173
     1
 91
-1023410173
340
28
 92
       -2
290
     1
 42
2.0
291
     1
 43
0.36
  3
Standard
 44
4.0
300

342
25
174
     1
178
     6
175
     1
176
     0
 93
-1023410174
 45
3.0
292
     0
297
     0
 46
4.0
 94
-1056964608
 47
1.0
 49
1.0
140
1.0
293
     1
141
0.0
294
     1
177
     0
142
1.0
295
     0
296
     0
143
0.125
271
     0
272
     9
273
     9
298
     1
  0
MLINESTYLE
  5
43
102
{ACAD_REACTORS
330
3B
102
}
330
3B
100
AcDbMlineStyle
  2
STANDARD
 70
     0
  3

 62
   256
 51
90.0
 52
90.0
 71
     2
 49
0.5
 62
   256
  6
BYLAYER
 49
-0.5
 62
   256
  6
BYLAYER
  0
ACDBPLACEHOLDER
  5
9
102
{ACAD_REACTORS
330
A
102
}
330
A
  0
SCALE
  5
48
102
{ACAD_REACTORS
330
40
102
}
330
40
100
AcDbScale
 70
     0
300
1:1
140
1.0
141
1.0
290
     1
  0
SCALE
  5
49
102
{ACAD_REACTORS
330
40
102
}
330
40
100
AcDbScale
 70
     0
300
1:2
140
1.0
141
2.0
290
     0
  0
SCALE
  5
4A
102
{ACAD_REACTORS
330
40
102
}
330
40
100
AcDbScale
 70
     0
300
1:4
140
1.0
141
4.0
290
     0
  0
SCALE
  5
4B
102
{ACAD_REACTORS
330
40
102
}
330
40
100
AcDbScale
 70
     0
300
1:5
140
1.0
141
5.0
290
     0
  0
SCALE
  5
4C
102
{ACAD_REACTORS
330
40
102
}
330
40
100
AcDbScale
 70
     0
300
1:8
140
1.0
141
8.0
290
     0
  0
SCALE
  5
4D
102
{ACAD_REACTORS
330
40
102
}
330
40
100
AcDbScale
 70
     0
300
1:10
140
1.0
141
10.0
290
     0
  0
SCALE
  5
4E
102
{ACAD_REACTORS
330
40
102
}
330
40
100
AcDbScale
 70
     0
300
1:16
140
1.0
141
16.0
290
     0
  0
SCALE
  5
4F
102
{ACAD_REACTORS
330
40
102
}
330
40
100
AcDbScale
 70
     0
300
1:20
140
1.0
141
20.0
290
     0
  0
SCALE
  5
50
102
{ACAD_REACTORS
330
40
102
}
330
40
100
AcDbScale
 70
     0
300
1:30
140
1.0
141
30.0
290
     0
  0
SCALE
  5
51
102
{ACAD_REACTORS
330
40
102
}
330
40
100
AcDbScale
 70
     0
300
1:40
140
1.0
141
40.0
290
     0
  0
SCALE
  5
52
102
{ACAD_REACTORS
330
40
102
}
330
40
100
AcDbScale
 70
     0
300
1:50
140
1.0
141
50.0
290
     0
  0
SCALE
  5
53
102
{ACAD_REACTORS
330
40
102
}
330
40
100
AcDbScale
 70
     0
300
1:100
140
1.0
141
100.0
290
     0
  0
SCALE
  5
54
102
{ACAD_REACTORS
330
40
102
}
330
40
100
AcDbScale
 70
     0
300
2:1
140
2.0
141
1.0
290
     0
  0
SCALE
  5
55
102
{ACAD_REACTORS
330
40
102
}
330
40
100
AcDbScale
 70
     0
300
4:1
140
4.0
141
1.0
290
     0
  0
SCALE
  5
56
102
{ACAD_REACTORS
330
40
102
}
330
40
100
AcDbScale
 70
     0
300
8:1
140
8.0
141
1.0
290
     0
  0
SCALE
  5
57
102
{ACAD_REACTORS
330
40
102
}
330
40
100
AcDbScale
 70
     0
300
10:1
140
10.0
141
1.0
290
     0
  0
SCALE
  5
58
102
{ACAD_REACTORS
330
40
102
}
330
40
100
AcDbScale
 70
     0
300
100:1
140
100.0
141
1.0
290
     0
  0
ACDBSECTIONVIEWSTYLE
  5
283CC
102
{ACAD_XDICTIONARY
360
3F8B7
102
}
102
{ACAD_REACTORS
330
BDA
102
}
330
BDA
100
AcDbModelDocViewStyle
 70
     0
  3
Imperial24
290
     0
100
AcDbSectionViewStyle
 70
     0
 71
     0
 90
       78
 71
     1
340
25
 62
   256
 40
0.24
340
0
340
0
 62
   256
 40
0.24
300
I, O, Q, S, X, Z
 40
0.48
 90
        3
 40
0.18
 90
        1
 71
     2
340
14
 90
       25
 62
   256
340
14
 90
       50
 62
   256
 40
0.24
 40
0.0
 40
0.24
 71
     3
340
25
 62
   256
 40
0.24
 90
        1
 40
0.75
 90
        1
300
%<\AcVar ViewType \f "%tc1">% %<\AcVar ViewSectionStartId>%-%<\AcVar ViewSectionEndId>%\PSCALE %<\AcVar ViewScale \f "%sn">%
 71
     4
 62
   256
 62
   257
300
ANSI31
 40
1.0
 90
        0
290
     0
290
     0
 90
        6
 40
0.0
 40
1.570796326794896
 40
0.2617993877991494
 40
1.308996938995747
 40
-0.2617993877991494
 40
1.832595714594046
  0
ACDBSECTIONVIEWSTYLE
  5
BDB
102
{ACAD_XDICTIONARY
360
3F8B3
102
}
102
{ACAD_REACTORS
330
BDA
102
}
330
BDA
100
AcDbModelDocViewStyle
 70
     0
  3
Metric50
290
     0
100
AcDbSectionViewStyle
 70
     0
 71
     0
 90
      102
 71
     1
340
25
 62
   256
 40
5.0
340
0
340
0
 62
   256
 40
5.0
300
I, O, Q, S, X, Z
 40
10.0
 90
        0
 40
2.5
 90
        0
 71
     2
340
14
 90
       25
 62
   256
340
14
 90
       50
 62
   256
 40
5.0
 40
2.5
 40
5.0
 71
     3
340
25
 62
   256
 40
5.0
 90
        0
 40
15.0
 90
        1
300
%<\AcVar ViewSectionStartId>%-%<\AcVar ViewSectionEndId>% (%<\AcVar ViewScale \f "%sn">%)
 71
     4
 62
   256
 62
   257
300
ANSI31
 40
1.0
 90
        0
290
     0
290
     0
 90
        6
 40
0.0
 40
1.570796326794896
 40
0.2617993877991494
 40
1.308996938995747
 40
-0.2617993877991494
 40
1.832595714594046
  0
TABLESTYLE
  5
44
102
{ACAD_XDICTIONARY
360
45
102
}
102
{ACAD_REACTORS
330
41
102
}
330
41
100
AcDbTableStyle
280
     0
  3
Standard
 70
     0
 71
     0
 40
1.5
 41
1.5
280
     0
281
     0
  7
Standard
140
4.5
170
     2
 62
     0
 63
     7
283
     0
 90
      512
 91
        0
  1

274
    -2
284
     1
 64
     0
275
    -2
285
     1
 65
     0
276
    -2
286
     1
 66
     0
277
    -2
287
     1
 67
     0
278
    -2
288
     1
 68
     0
279
    -2
289
     1
 69
     0
  7
Standard
140
6.0
170
     5
 62
     0
 63
     7
283
     0
 90
      512
 91
        0
  1

274
    -2
284
     1
 64
     0
275
    -2
285
     1
 65
     0
276
    -2
286
     1
 66
     0
277
    -2
287
     1
 67
     0
278
    -2
288
     1
 68
     0
279
    -2
289
     1
 69
     0
  7
Standard
140
4.5
170
     5
 62
     0
 63
     7
283
     0
 90
      512
 91
        0
  1

274
    -2
284
     1
 64
     0
275
    -2
285
     1
 65
     0
276
    -2
286
     1
 66
     0
277
    -2
287
     1
 67
     0
278
    -2
288
     1
 68
     0
279
    -2
289
     1
 69
     0
  0
VISUALSTYLE
  5
2E
102
{ACAD_REACTORS
330
2F
102
}
330
2F
100
AcDbVisualStyle
  2
2dWireframe
 70
     4
177
     3
291
     0
 70
    58
 90
        0
176
     1
 90
        2
176
     1
 90
        1
176
     1
 90
        0
176
     1
 40
0.6
176
     1
 40
30.0
176
     1
 62
     7
176
     1
 90
        1
176
     1
 90
        4
176
     1
 62
     7
176
     1
 62
   257
176
     1
 90
        1
176
     1
 90
        1
176
     1
 40
1.0
176
     1
 90
        0
176
     1
 62
   257
176
     1
 40
1.0
176
     1
 90
        1
176
     1
 90
        6
176
     1
 90
        2
176
     1
 62
     7
176
     1
 90
        5
176
     1
 90
        0
176
     1
 90
        0
176
     1
290
     0
176
     1
 90
        1
176
     1
 40
0.0
176
     1
 90
        0
176
     1
290
     1
176
     1
290
     1
176
     1
290
     0
176
     1
290
     0
176
     1
290
     0
176
     1
290
     0
176
     1
290
     0
176
     1
290
     0
176
     1
290
     0
176
     1
 90
       50
176
     1
 40
0.0
176
     1
 40
1.0
176
     1
 90
        0
176
     1
 62
    18
420
        0
176
     1
 90
       50
176
     1
 90
        3
176
     1
 62
     5
420
      255
176
     1
290
     0
176
     1
 90
       50
176
     1
 90
       50
176
     1
 90
       50
176
     1
290
     0
176
     1
 90
       50
176
     1
 62
   256
176
     0
 40
1.0
176
     0
 90
        2
176
     1
  1
strokes_ogs.tif
176
     1
290
     0
176
     1
 40
1.0
176
     1
 40
1.0
176
     1
  0
VISUALSTYLE
  5
1A64
102
{ACAD_REACTORS
330
2F
102
}
330
2F
100
AcDbVisualStyle
  2
3D Hidden
 70
     6
177
     3
291
     0
 70
    58
 90
        1
176
     1
 90
        2
176
     1
 90
        2
176
     1
 90
        0
176
     1
 40
0.6
176
     1
 40
30.0
176
     1
 62
     7
176
     1
 90
        2
176
     1
 90
        2
176
     1
 62
     7
176
     1
 62
   257
176
     1
 90
        2
176
     1
 90
        1
176
     1
 40
40.0
176
     1
 90
        0
176
     1
 62
   257
176
     1
 40
1.0
176
     1
 90
        1
176
     1
 90
        6
176
     1
 90
        2
176
     1
 62
     7
176
     1
 90
        3
176
     1
 90
        0
176
     1
 90
        0
176
     1
290
     0
176
     1
 90
        1
176
     1
 40
0.0
176
     1
 90
        0
176
     1
290
     0
176
     1
290
     1
176
     1
290
     1
176
     1
290
     0
176
     1
290
     0
176
     1
290
     0
176
     1
290
     0
176
     1
290
     0
176
     1
290
     0
176
     1
 90
       50
176
     1
 40
0.0
176
     1
 40
1.0
176
     1
 90
        0
176
     1
 62
    18
420
        0
176
     1
 90
       50
176
     1
 90
        3
176
     1
 62
     5
420
      255
176
     1
290
     0
176
     1
 90
       50
176
     1
 90
       50
176
     1
 90
       50
176
     1
290
     0
176
     1
 90
       50
176
     1
 62
   256
176
     0
 40
1.0
176
     0
 90
        2
176
     1
  1
strokes_ogs.tif
176
     1
290
     0
176
     1
 40
1.0
176
     1
 40
1.0
176
     1
  0
VISUALSTYLE
  5
47
102
{ACAD_REACTORS
330
2F
102
}
330
2F
100
AcDbVisualStyle
  2
3dWireframe
 70
     5
177
     3
291
     0
 70
    58
 90
        0
176
     1
 90
        2
176
     1
 90
        1
176
     1
 90
        0
176
     1
 40
0.6
176
     1
 40
30.0
176
     1
 62
     7
176
     1
 90
        1
176
     1
 90
        4
176
     1
 62
     7
176
     1
 62
   257
176
     1
 90
        1
176
     1
 90
        1
176
     1
 40
1.0
176
     1
 90
        0
176
     1
 62
   257
176
     1
 40
1.0
176
     1
 90
        1
176
     1
 90
        6
176
     1
 90
        2
176
     1
 62
     7
176
     1
 90
        5
176
     1
 90
        0
176
     1
 90
        0
176
     1
290
     0
176
     1
 90
        1
176
     1
 40
0.0
176
     1
 90
        0
176
     1
290
     0
176
     1
290
     1
176
     1
290
     1
176
     1
290
     0
176
     1
290
     0
176
     1
290
     0
176
     1
290
     0
176
     1
290
     0
176
     1
290
     0
176
     1
 90
       50
176
     1
 40
0.0
176
     1
 40
1.0
176
     1
 90
        0
176
     1
 62
    18
420
        0
176
     1
 90
       50
176
     1
 90
        3
176
     1
 62
     5
420
      255
176
     1
290
     0
176
     1
 90
       50
176
     1
 90
       50
176
     1
 90
       50
176
     1
290
     0
176
     1
 90
       50
176
     1
 62
   256
176
     0
 40
1.0
176
     0
 90
        2
176
     1
  1
strokes_ogs.tif
176
     1
290
     0
176
     1
 40
1.0
176
     1
 40
1.0
176
     1
  0
VISUALSTYLE
  5
BC7
102
{ACAD_REACTORS
330
2F
102
}
330
2F
100
AcDbVisualStyle
  2
Basic
 70
     7
177
     3
291
     1
 70
    58
 90
        1
176
     1
 90
        0
176
     1
 90
        1
176
     1
 90
        0
176
     1
 40
0.6
176
     1
 40
30.0
176
     1
 62
     7
176
     1
 90
        0
176
     1
 90
        4
176
     1
 62
     7
176
     1
 62
   257
176
     1
 90
        1
176
     1
 90
        1
176
     1
 40
1.0
176
     1
 90
        8
176
     1
 62
     7
176
     1
 40
1.0
176
     1
 90
        1
176
     1
 90
        6
176
     1
 90
        2
176
     1
 62
     7
176
     1
 90
        5
176
     1
 90
        0
176
     1
 90
        0
176
     1
290
     0
176
     1
 90
        1
176
     1
 40
0.0
176
     1
 90
        0
176
     1
290
     0
176
     1
290
     1
176
     1
290
     1
176
     1
290
     0
176
     1
290
     0
176
     1
290
     0
176
     1
290
     0
176
     1
290
     0
176
     1
290
     0
176
     1
 90
       50
176
     1
 40
0.0
176
     1
 40
1.0
176
     1
 90
        0
176
     1
 62
    18
420
        0
176
     1
 90
       50
176
     1
 90
        3
176
     1
 62
     5
420
      255
176
     1
290
     0
176
     1
 90
       50
176
     1
 90
       50
176
     1
 90
       50
176
     1
290
     0
176
     1
 90
       50
176
     1
 62
   256
176
     0
 40
1.0
176
     0
 90
        2
176
     1
  1
strokes_ogs.tif
176
     1
290
     0
176
     1
 40
1.0
176
     1
 40
1.0
176
     1
  0
VISUALSTYLE
  5
BCC
102
{ACAD_REACTORS
330
2F
102
}
330
2F
100
AcDbVisualStyle
  2
Brighten
 70
    12
177
     3
291
     1
 70
    58
 90
        2
176
     1
 90
        2
176
     1
 90
        0
176
     1
 90
        0
176
     1
 40
0.6
176
     1
 40
30.0
176
     1
 62
     7
176
     1
 90
        1
176
     1
 90
        4
176
     1
 62
     7
176
     1
 62
   257
176
     1
 90
        1
176
     1
 90
        1
176
     1
 40
1.0
176
     1
 90
        8
176
     1
 62
     7
176
     1
 40
1.0
176
     1
 90
        1
176
     1
 90
        6
176
     1
 90
        2
176
     1
 62
     7
176
     1
 90
        5
176
     1
 90
        0
176
     1
 90
        0
176
     1
290
     0
176
     1
 90
        1
176
     1
 40
50.0
176
     1
 90
        0
176
     1
290
     0
176
     1
290
     1
176
     1
290
     1
176
     1
290
     0
176
     1
290
     0
176
     1
290
     0
176
     1
290
     0
176
     1
290
     0
176
     1
290
     0
176
     1
 90
       50
176
     1
 40
0.0
176
     1
 40
1.0
176
     1
 90
        0
176
     1
 62
    18
420
        0
176
     1
 90
       50
176
     1
 90
        3
176
     1
 62
     5
420
      255
176
     1
290
     0
176
     1
 90
       50
176
     1
 90
       50
176
     1
 90
       50
176
     1
290
     0
176
     1
 90
       50
176
     1
 62
   256
176
     0
 40
1.0
176
     0
 90
        2
176
     1
  1
strokes_ogs.tif
176
     1
290
     0
176
     1
 40
1.0
176
     1
 40
1.0
176
     1
  0
VISUALSTYLE
  5
BD0
102
{ACAD_REACTORS
330
2F
102
}
330
2F
100
AcDbVisualStyle
  2
ColorChange
 70
    16
177
     3
291
     1
 70
    58
 90
        2
176
     1
 90
        2
176
     1
 90
        3
176
     1
 90
        0
176
     1
 40
0.6
176
     1
 40
30.0
176
     1
 62
     8
176
     1
 90
        1
176
     1
 90
        4
176
     1
 62
     7
176
     1
 62
   257
176
     1
 90
        1
176
     1
 90
        1
176
     1
 40
1.0
176
     1
 90
        8
176
     1
 62
     8
176
     1
 40
1.0
176
     1
 90
        1
176
     1
 90
        6
176
     1
 90
        2
176
     1
 62
     7
176
     1
 90
        5
176
     1
 90
        0
176
     1
 90
        0
176
     1
290
     0
176
     1
 90
        1
176
     1
 40
0.0
176
     1
 90
        0
176
     1
290
     0
176
     1
290
     1
176
     1
290
     1
176
     1
290
     0
176
     1
290
     0
176
     1
290
     0
176
     1
290
     0
176
     1
290
     0
176
     1
290
     0
176
     1
 90
       50
176
     1
 40
0.0
176
     1
 40
1.0
176
     1
 90
        0
176
     1
 62
    18
420
        0
176
     1
 90
       50
176
     1
 90
        3
176
     1
 62
     5
420
      255
176
     1
290
     0
176
     1
 90
       50
176
     1
 90
       50
176
     1
 90
       50
176
     1
290
     0
176
     1
 90
       50
176
     1
 62
   256
176
     0
 40
1.0
176
     0
 90
        2
176
     1
  1
strokes_ogs.tif
176
     1
290
     0
176
     1
 40
1.0
176
     1
 40
1.0
176
     1
  0
VISUALSTYLE
  5
BCA
102
{ACAD_REACTORS
330
2F
102
}
330
2F
100
AcDbVisualStyle
  2
Conceptual
 70
     9
177
     3
291
     0
 70
    58
 90
        3
176
     1
 90
        2
176
     1
 90
        0
176
     1
 90
        0
176
     1
 40
0.6
176
     1
 40
30.0
176
     1
 62
     7
176
     1
 90
        2
176
     1
 90
        2
176
     1
 62
     7
176
     1
 62
   257
176
     1
 90
        1
176
     1
 90
        1
176
     1
 40
179.0
176
     1
 90
        8
176
     1
 62
     7
176
     1
 40
1.0
176
     1
 90
        1
176
     1
 90
        6
176
     1
 90
        2
176
     1
 62
     7
176
     1
 90
        3
176
     1
 90
        0
176
     1
 90
        0
176
     1
290
     0
176
     1
 90
        1
176
     1
 40
0.0
176
     1
 90
        0
176
     1
290
     0
176
     1
290
     1
176
     1
290
     1
176
     1
290
     0
176
     1
290
     0
176
     1
290
     0
176
     1
290
     0
176
     1
290
     0
176
     1
290
     0
176
     1
 90
       50
176
     1
 40
0.0
176
     1
 40
1.0
176
     1
 90
        0
176
     1
 62
    18
420
        0
176
     1
 90
       50
176
     1
 90
        3
176
     1
 62
     5
420
      255
176
     1
290
     0
176
     1
 90
       50
176
     1
 90
       50
176
     1
 90
       50
176
     1
290
     0
176
     1
 90
       50
176
     1
 62
   256
176
     0
 40
1.0
176
     0
 90
        2
176
     1
  1
strokes_ogs.tif
176
     1
290
     0
176
     1
 40
1.0
176
     1
 40
1.0
176
     1
  0
VISUALSTYLE
  5
BCB
102
{ACAD_REACTORS
330
2F
102
}
330
2F
100
AcDbVisualStyle
  2
Dim
 70
    11
177
     3
291
     1
 70
    58
 90
        2
176
     1
 90
        2
176
     1
 90
        0
176
     1
 90
        0
176
     1
 40
0.6
176
     1
 40
30.0
176
     1
 62
     7
176
     1
 90
        1
176
     1
 90
        4
176
     1
 62
     7
176
     1
 62
   257
176
     1
 90
        1
176
     1
 90
        1
176
     1
 40
1.0
176
     1
 90
        8
176
     1
 62
     7
176
     1
 40
1.0
176
     1
 90
        1
176
     1
 90
        6
176
     1
 90
        2
176
     1
 62
     7
176
     1
 90
        5
176
     1
 90
        0
176
     1
 90
        0
176
     1
290
     0
176
     1
 90
        1
176
     1
 40
-50.0
176
     1
 90
        0
176
     1
290
     0
176
     1
290
     1
176
     1
290
     1
176
     1
290
     0
176
     1
290
     0
176
     1
290
     0
176
     1
290
     0
176
     1
290
     0
176
     1
290
     0
176
     1
 90
       50
176
     1
 40
0.0
176
     1
 40
1.0
176
     1
 90
        0
176
     1
 62
    18
420
        0
176
     1
 90
       50
176
     1
 90
        3
176
     1
 62
     5
420
      255
176
     1
290
     0
176
     1
 90
       50
176
     1
 90
       50
176
     1
 90
       50
176
     1
290
     0
176
     1
 90
       50
176
     1
 62
   256
176
     0
 40
1.0
176
     0
 90
        2
176
     1
  1
strokes_ogs.tif
176
     1
290
     0
176
     1
 40
1.0
176
     1
 40
1.0
176
     1
  0
VISUALSTYLE
  5
BD8
102
{ACAD_REACTORS
330
2F
102
}
330
2F
100
AcDbVisualStyle
  2
EdgeColorOff
 70
    22
177
     3
291
     1
 70
    58
 90
        2
176
     0
 90
        2
176
     0
 90
        0
176
     0
 90
        0
176
     0
 40
0.6
176
     0
 40
30.0
176
     0
 62
     7
176
     0
 90
        1
176
     0
 90
        4
176
     0
 62
     7
176
     0
 62
   257
176
     0
 90
        1
176
     0
 90
        1
176
     0
 40
1.0
176
     0
 90
        8
176
     2
 62
     7
176
     0
 40
1.0
176
     0
 90
        1
176
     0
 90
        6
176
     0
 90
        2
176
     0
 62
     7
176
     0
 90
        5
176
     0
 90
        0
176
     0
 90
        0
176
     0
290
     0
176
     0
 90
        1
176
     0
 40
0.0
176
     0
 90
        0
176
     0
290
     0
176
     0
290
     1
176
     0
290
     1
176
     0
290
     0
176
     0
290
     0
176
     0
290
     0
176
     0
290
     0
176
     0
290
     0
176
     0
290
     0
176
     0
 90
       50
176
     0
 40
0.0
176
     0
 40
1.0
176
     0
 90
        0
176
     0
 62
    18
420
        0
176
     0
 90
       50
176
     0
 90
        3
176
     0
 62
     5
420
      255
176
     0
290
     0
176
     0
 90
       50
176
     0
 90
       50
176
     0
 90
       50
176
     0
290
     0
176
     0
 90
       50
176
     0
 62
   256
176
     0
 40
1.0
176
     0
 90
        2
176
     0
  1
strokes_ogs.tif
176
     0
290
     0
176
     0
 40
1.0
176
     0
 40
1.0
176
     0
  0
VISUALSTYLE
  5
BCF
102
{ACAD_REACTORS
330
2F
102
}
330
2F
100
AcDbVisualStyle
  2
Facepattern
 70
    15
177
     3
291
     1
 70
    58
 90
        2
176
     1
 90
        2
176
     1
 90
        0
176
     1
 90
        0
176
     1
 40
0.6
176
     1
 40
30.0
176
     1
 62
     7
176
     1
 90
        1
176
     1
 90
        4
176
     1
 62
     7
176
     1
 62
   257
176
     1
 90
        1
176
     1
 90
        1
176
     1
 40
1.0
176
     1
 90
        8
176
     1
 62
     7
176
     1
 40
1.0
176
     1
 90
        1
176
     1
 90
        6
176
     1
 90
        2
176
     1
 62
     7
176
     1
 90
        5
176
     1
 90
        0
176
     1
 90
        0
176
     1
290
     0
176
     1
 90
        1
176
     1
 40
0.0
176
     1
 90
        0
176
     1
290
     0
176
     1
290
     1
176
     1
290
     1
176
     1
290
     0
176
     1
290
     0
176
     1
290
     0
176
     1
290
     0
176
     1
290
     0
176
     1
290
     0
176
     1
 90
       50
176
     1
 40
0.0
176
     1
 40
1.0
176
     1
 90
        0
176
     1
 62
    18
420
        0
176
     1
 90
       50
176
     1
 90
        3
176
     1
 62
     5
420
      255
176
     1
290
     0
176
     1
 90
       50
176
     1
 90
       50
176
     1
 90
       50
176
     1
290
     0
176
     1
 90
       50
176
     1
 62
   256
176
     0
 40
1.0
176
     0
 90
        2
176
     1
  1
strokes_ogs.tif
176
     1
290
     0
176
     1
 40
1.0
176
     1
 40
1.0
176
     1
  0
VISUALSTYLE
  5
BC3
102
{ACAD_REACTORS
330
2F
102
}
330
2F
100
AcDbVisualStyle
  2
Flat
 70
     0
177
     3
291
     1
 70
    58
 90
        2
176
     1
 90
        1
176
     1
 90
        1
176
     1
 90
        2
176
     1
 40
0.6
176
     1
 40
30.0
176
     1
 62
     7
176
     1
 90
        0
176
     1
 90
        0
176
     1
 62
     7
176
     1
 62
   257
176
     1
 90
        1
176
     1
 90
        1
176
     1
 40
1.0
176
     1
 90
        8
176
     1
 62
     7
176
     1
 40
1.0
176
     1
 90
        1
176
     1
 90
        6
176
     1
 90
        2
176
     1
 62
     7
176
     1
 90
        5
176
     1
 90
        0
176
     1
 90
        0
176
     1
290
     0
176
     1
 90
       13
176
     1
 40
0.0
176
     1
 90
        0
176
     1
290
     0
176
     1
290
     1
176
     1
290
     1
176
     1
290
     0
176
     1
290
     0
176
     1
290
     0
176
     1
290
     0
176
     1
290
     0
176
     1
290
     0
176
     1
 90
       50
176
     1
 40
0.0
176
     1
 40
1.0
176
     1
 90
        0
176
     1
 62
    18
420
        0
176
     1
 90
       50
176
     1
 90
        3
176
     1
 62
     5
420
      255
176
     1
290
     0
176
     1
 90
       50
176
     1
 90
       50
176
     1
 90
       50
176
     1
290
     0
176
     1
 90
       50
176
     1
 62
   256
176
     0
 40
1.0
176
     0
 90
        2
176
     1
  1
strokes_ogs.tif
176
     1
290
     0
176
     1
 40
1.0
176
     1
 40
1.0
176
     1
  0
VISUALSTYLE
  5
BC4
102
{ACAD_REACTORS
330
2F
102
}
330
2F
100
AcDbVisualStyle
  2
FlatWithEdges
 70
     1
177
     3
291
     1
 70
    58
 90
        2
176
     1
 90
        1
176
     1
 90
        1
176
     1
 90
        2
176
     1
 40
0.6
176
     1
 40
30.0
176
     1
 62
     7
176
     1
 90
        1
176
     1
 90
        0
176
     1
 62
     7
176
     1
 62
   257
176
     1
 90
        1
176
     1
 90
        1
176
     1
 40
1.0
176
     1
 90
        0
176
     1
 62
   257
176
     1
 40
1.0
176
     1
 90
        1
176
     1
 90
        6
176
     1
 90
        2
176
     1
 62
     7
176
     1
 90
        5
176
     1
 90
        0
176
     1
 90
        0
176
     1
290
     0
176
     1
 90
       13
176
     1
 40
0.0
176
     1
 90
        0
176
     1
290
     0
176
     1
290
     1
176
     1
290
     1
176
     1
290
     0
176
     1
290
     0
176
     1
290
     0
176
     1
290
     0
176
     1
290
     0
176
     1
290
     0
176
     1
 90
       50
176
     1
 40
0.0
176
     1
 40
1.0
176
     1
 90
        0
176
     1
 62
    18
420
        0
176
     1
 90
       50
176
     1
 90
        3
176
     1
 62
     5
420
      255
176
     1
290
     0
176
     1
 90
       50
176
     1
 90
       50
176
     1
 90
       50
176
     1
290
     0
176
     1
 90
       50
176
     1
 62
   256
176
     0
 40
1.0
176
     0
 90
        2
176
     1
  1
strokes_ogs.tif
176
     1
290
     0
176
     1
 40
1.0
176
     1
 40
1.0
176
     1
  0
VISUALSTYLE
  5
BC5
102
{ACAD_REACTORS
330
2F
102
}
330
2F
100
AcDbVisualStyle
  2
Gouraud
 70
     2
177
     3
291
     1
 70
    58
 90
        2
176
     1
 90
        2
176
     1
 90
        1
176
     1
 90
        2
176
     1
 40
0.6
176
     1
 40
30.0
176
     1
 62
     7
176
     1
 90
        0
176
     1
 90
        0
176
     1
 62
     7
176
     1
 62
   257
176
     1
 90
        1
176
     1
 90
        1
176
     1
 40
1.0
176
     1
 90
        0
176
     1
 62
     7
176
     1
 40
1.0
176
     1
 90
        1
176
     1
 90
        6
176
     1
 90
        2
176
     1
 62
     7
176
     1
 90
        5
176
     1
 90
        0
176
     1
 90
        0
176
     1
290
     0
176
     1
 90
       13
176
     1
 40
0.0
176
     1
 90
        0
176
     1
290
     0
176
     1
290
     1
176
     1
290
     1
176
     1
290
     0
176
     1
290
     0
176
     1
290
     0
176
     1
290
     0
176
     1
290
     0
176
     1
290
     0
176
     1
 90
       50
176
     1
 40
0.0
176
     1
 40
1.0
176
     1
 90
        0
176
     1
 62
    18
420
        0
176
     1
 90
       50
176
     1
 90
        3
176
     1
 62
     5
420
      255
176
     1
290
     0
176
     1
 90
       50
176
     1
 90
       50
176
     1
 90
       50
176
     1
290
     0
176
     1
 90
       50
176
     1
 62
   256
176
     0
 40
1.0
176
     0
 90
        2
176
     1
  1
strokes_ogs.tif
176
     1
290
     0
176
     1
 40
1.0
176
     1
 40
1.0
176
     1
  0
VISUALSTYLE
  5
BC6
102
{ACAD_REACTORS
330
2F
102
}
330
2F
100
AcDbVisualStyle
  2
GouraudWithEdges
 70
     3
177
     3
291
     1
 70
    58
 90
        2
176
     1
 90
        2
176
     1
 90
        1
176
     1
 90
        2
176
     1
 40
0.6
176
     1
 40
30.0
176
     1
 62
     7
176
     1
 90
        1
176
     1
 90
        0
176
     1
 62
     7
176
     1
 62
   257
176
     1
 90
        1
176
     1
 90
        1
176
     1
 40
1.0
176
     1
 90
        0
176
     1
 62
   257
176
     1
 40
1.0
176
     1
 90
        1
176
     1
 90
        6
176
     1
 90
        2
176
     1
 62
     7
176
     1
 90
        5
176
     1
 90
        0
176
     1
 90
        0
176
     1
290
     0
176
     1
 90
       13
176
     1
 40
0.0
176
     1
 90
        0
176
     1
290
     0
176
     1
290
     1
176
     1
290
     1
176
     1
290
     0
176
     1
290
     0
176
     1
290
     0
176
     1
290
     0
176
     1
290
     0
176
     1
290
     0
176
     1
 90
       50
176
     1
 40
0.0
176
     1
 40
1.0
176
     1
 90
        0
176
     1
 62
    18
420
        0
176
     1
 90
       50
176
     1
 90
        3
176
     1
 62
     5
420
      255
176
     1
290
     0
176
     1
 90
       50
176
     1
 90
       50
176
     1
 90
       50
176
     1
290
     0
176
     1
 90
       50
176
     1
 62
   256
176
     0
 40
1.0
176
     0
 90
        2
176
     1
  1
strokes_ogs.tif
176
     1
290
     0
176
     1
 40
1.0
176
     1
 40
1.0
176
     1
  0
VISUALSTYLE
  5
BC9
102
{ACAD_REACTORS
330
2F
102
}
330
2F
100
AcDbVisualStyle
  2
Hidden
 70
     6
177
     3
291
     0
 70
    58
 90
        1
176
     1
 90
        2
176
     1
 90
        2
176
     1
 90
        0
176
     1
 40
0.6
176
     1
 40
30.0
176
     1
 62
     7
176
     1
 90
        2
176
     1
 90
        2
176
     1
 62
     7
176
     1
 62
   257
176
     1
 90
        2
176
     1
 90
        1
176
     1
 40
40.0
176
     1
 90
        0
176
     1
 62
   257
176
     1
 40
1.0
176
     1
 90
        1
176
     1
 90
        6
176
     1
 90
        2
176
     1
 62
     7
176
     1
 90
        3
176
     1
 90
        0
176
     1
 90
        0
176
     1
290
     0
176
     1
 90
        1
176
     1
 40
0.0
176
     1
 90
        0
176
     1
290
     0
176
     1
290
     1
176
     1
290
     1
176
     1
290
     0
176
     1
290
     0
176
     1
290
     0
176
     1
290
     0
176
     1
290
     0
176
     1
290
     0
176
     1
 90
       50
176
     1
 40
0.0
176
     1
 40
1.0
176
     1
 90
        0
176
     1
 62
    18
420
        0
176
     1
 90
       50
176
     1
 90
        3
176
     1
 62
     5
420
      255
176
     1
290
     0
176
     1
 90
       50
176
     1
 90
       50
176
     1
 90
       50
176
     1
290
     0
176
     1
 90
       50
176
     1
 62
   256
176
     0
 40
1.0
176
     0
 90
        2
176
     1
  1
strokes_ogs.tif
176
     1
290
     0
176
     1
 40
1.0
176
     1
 40
1.0
176
     1
  0
VISUALSTYLE
  5
BD6
102
{ACAD_REACTORS
330
2F
102
}
330
2F
100
AcDbVisualStyle
  2
JitterOff
 70
    20
177
     3
291
     1
 70
    58
 90
        2
176
     0
 90
        2
176
     0
 90
        0
176
     0
 90
        0
176
     0
 40
0.6
176
     0
 40
30.0
176
     0
 62
     7
176
     0
 90
        1
176
     0
 90
        4
176
     0
 62
     7
176
     0
 62
   257
176
     0
 90
        1
176
     0
 90
        1
176
     0
 40
1.0
176
     0
 90
       10
176
     2
 62
     7
176
     0
 40
1.0
176
     0
 90
        1
176
     0
 90
        6
176
     0
 90
        2
176
     0
 62
     7
176
     0
 90
        5
176
     0
 90
        0
176
     0
 90
        0
176
     0
290
     0
176
     0
 90
        1
176
     0
 40
0.0
176
     0
 90
        0
176
     0
290
     0
176
     0
290
     1
176
     0
290
     1
176
     0
290
     0
176
     0
290
     0
176
     0
290
     0
176
     0
290
     0
176
     0
290
     0
176
     0
290
     0
176
     0
 90
       50
176
     0
 40
0.0
176
     0
 40
1.0
176
     0
 90
        0
176
     0
 62
    18
420
        0
176
     0
 90
       50
176
     0
 90
        3
176
     0
 62
     5
420
      255
176
     0
290
     0
176
     0
 90
       50
176
     0
 90
       50
176
     0
 90
       50
176
     0
290
     0
176
     0
 90
       50
176
     0
 62
   256
176
     0
 40
1.0
176
     0
 90
        2
176
     0
  1
strokes_ogs.tif
176
     0
290
     0
176
     0
 40
1.0
176
     0
 40
1.0
176
     0
  0
VISUALSTYLE
  5
BCE
102
{ACAD_REACTORS
330
2F
102
}
330
2F
100
AcDbVisualStyle
  2
Linepattern
 70
    14
177
     3
291
     1
 70
    58
 90
        2
176
     1
 90
        2
176
     1
 90
        0
176
     1
 90
        0
176
     1
 40
0.6
176
     1
 40
30.0
176
     1
 62
     7
176
     1
 90
        1
176
     1
 90
        4
176
     1
 62
     7
176
     1
 62
   257
176
     1
 90
        7
176
     1
 90
        7
176
     1
 40
1.0
176
     1
 90
        8
176
     1
 62
     7
176
     1
 40
1.0
176
     1
 90
        1
176
     1
 90
        6
176
     1
 90
        2
176
     1
 62
     7
176
     1
 90
        5
176
     1
 90
        0
176
     1
 90
        0
176
     1
290
     0
176
     1
 90
        1
176
     1
 40
0.0
176
     1
 90
        0
176
     1
290
     0
176
     1
290
     1
176
     1
290
     1
176
     1
290
     0
176
     1
290
     0
176
     1
290
     0
176
     1
290
     0
176
     1
290
     0
176
     1
290
     0
176
     1
 90
       50
176
     1
 40
0.0
176
     1
 40
1.0
176
     1
 90
        0
176
     1
 62
    18
420
        0
176
     1
 90
       50
176
     1
 90
        3
176
     1
 62
     5
420
      255
176
     1
290
     0
176
     1
 90
       50
176
     1
 90
       50
176
     1
 90
       50
176
     1
290
     0
176
     1
 90
       50
176
     1
 62
   256
176
     0
 40
1.0
176
     0
 90
        2
176
     1
  1
strokes_ogs.tif
176
     1
290
     0
176
     1
 40
1.0
176
     1
 40
1.0
176
     1
  0
VISUALSTYLE
  5
BD7
102
{ACAD_REACTORS
330
2F
102
}
330
2F
100
AcDbVisualStyle
  2
OverhangOff
 70
    21
177
     3
291
     1
 70
    58
 90
        2
176
     0
 90
        2
176
     0
 90
        0
176
     0
 90
        0
176
     0
 40
0.6
176
     0
 40
30.0
176
     0
 62
     7
176
     0
 90
        1
176
     0
 90
        4
176
     0
 62
     7
176
     0
 62
   257
176
     0
 90
        1
176
     0
 90
        1
176
     0
 40
1.0
176
     0
 90
        9
176
     2
 62
     7
176
     0
 40
1.0
176
     0
 90
        1
176
     0
 90
        6
176
     0
 90
        2
176
     0
 62
     7
176
     0
 90
        5
176
     0
 90
        0
176
     0
 90
        0
176
     0
290
     0
176
     0
 90
        1
176
     0
 40
0.0
176
     0
 90
        0
176
     0
290
     0
176
     0
290
     1
176
     0
290
     1
176
     0
290
     0
176
     0
290
     0
176
     0
290
     0
176
     0
290
     0
176
     0
290
     0
176
     0
290
     0
176
     0
 90
       50
176
     0
 40
0.0
176
     0
 40
1.0
176
     0
 90
        0
176
     0
 62
    18
420
        0
176
     0
 90
       50
176
     0
 90
        3
176
     0
 62
     5
420
      255
176
     0
290
     0
176
     0
 90
       50
176
     0
 90
       50
176
     0
 90
       50
176
     0
290
     0
176
     0
 90
       50
176
     0
 62
   256
176
     0
 40
1.0
176
     0
 90
        2
176
     0
  1
strokes_ogs.tif
176
     0
290
     0
176
     0
 40
1.0
176
     0
 40
1.0
176
     0
  0
VISUALSTYLE
  5
46
102
{ACAD_REACTORS
330
2F
102
}
330
2F
100
AcDbVisualStyle
  2
Realistic
 70
     8
177
     3
291
     0
 70
    58
 90
        2
176
     1
 90
        2
176
     1
 90
        1
176
     1
 90
        0
176
     1
 40
0.6
176
     1
 40
30.0
176
     1
 62
     7
176
     1
 90
        1
176
     1
 90
        0
176
     1
 62
     7
176
     1
 62
   257
176
     1
 90
        1
176
     1
 90
        1
176
     1
 40
1.0
176
     1
 90
        8
176
     1
 62
     8
176
     1
 40
1.0
176
     1
 90
        1
176
     1
 90
        6
176
     1
 90
        2
176
     1
 62
     7
176
     1
 90
        5
176
     1
 90
        0
176
     1
 90
        0
176
     1
290
     0
176
     1
 90
       13
176
     1
 40
0.0
176
     1
 90
        0
176
     1
290
     0
176
     1
290
     1
176
     1
290
     1
176
     1
290
     0
176
     1
290
     0
176
     1
290
     0
176
     1
290
     0
176
     1
290
     0
176
     1
290
     0
176
     1
 90
       50
176
     1
 40
0.0
176
     1
 40
1.0
176
     1
 90
        0
176
     1
 62
    18
420
        0
176
     1
 90
       50
176
     1
 90
        3
176
     1
 62
     5
420
      255
176
     1
290
     0
176
     1
 90
       50
176
     1
 90
       50
176
     1
 90
       50
176
     1
290
     0
176
     1
 90
       50
176
     1
 62
   256
176
     0
 40
1.0
176
     0
 90
        2
176
     1
  1
strokes_ogs.tif
176
     1
290
     0
176
     1
 40
1.0
176
     1
 40
1.0
176
     1
  0
VISUALSTYLE
  5
BD5
102
{ACAD_REACTORS
330
2F
102
}
330
2F
100
AcDbVisualStyle
  2
Shaded
 70
    27
177
     3
291
     0
 70
    58
 90
        2
176
     1
 90
        2
176
     1
 90
        1
176
     1
 90
        2
176
     1
 40
0.6
176
     1
 40
30.0
176
     1
 62
     7
176
     1
 90
        0
176
     1
 90
        4
176
     1
 62
     7
176
     1
 62
   257
176
     1
 90
        1
176
     1
 90
        1
176
     1
 40
1.0
176
     1
 90
        8
176
     1
 62
   257
176
     1
 40
1.0
176
     1
 90
        1
176
     1
 90
        6
176
     1
 90
        2
176
     1
 62
     8
176
     1
 90
        3
176
     1
 90
        0
176
     1
 90
        0
176
     1
290
     0
176
     1
 90
        5
176
     1
 40
0.0
176
     1
 90
        0
176
     1
290
     0
176
     1
290
     1
176
     1
290
     1
176
     1
290
     0
176
     1
290
     0
176
     1
290
     0
176
     1
290
     0
176
     1
290
     0
176
     1
290
     0
176
     1
 90
       50
176
     1
 40
0.0
176
     1
 40
1.0
176
     1
 90
        0
176
     1
 62
    18
420
        0
176
     1
 90
       50
176
     1
 90
        3
176
     1
 62
     5
420
      255
176
     1
290
     0
176
     1
 90
       50
176
     1
 90
       50
176
     1
 90
       50
176
     1
290
     0
176
     1
 90
       50
176
     1
 62
   256
176
     0
 40
1.0
176
     0
 90
        2
176
     1
  1
strokes_ogs.tif
176
     1
290
     0
176
     1
 40
1.0
176
     1
 40
1.0
176
     1
  0
VISUALSTYLE
  5
BD4
102
{ACAD_REACTORS
330
2F
102
}
330
2F
100
AcDbVisualStyle
  2
Shaded with edges
 70
    26
177
     3
291
     0
 70
    58
 90
        2
176
     1
 90
        2
176
     1
 90
        1
176
     1
 90
        2
176
     1
 40
0.6
176
     1
 40
30.0
176
     1
 62
     7
176
     1
 90
        1
176
     1
 90
       10
176
     1
 62
     7
176
     1
 62
   257
176
     1
 90
        2
176
     1
 90
        1
176
     1
 40
1.0
176
     1
 90
        8
176
     1
 62
   257
176
     1
 40
1.0
176
     1
 90
        1
176
     1
 90
        6
176
     1
 90
        2
176
     1
 62
     7
176
     1
 90
        3
176
     1
 90
        0
176
     1
 90
        0
176
     1
290
     0
176
     1
 90
        5
176
     1
 40
0.0
176
     1
 90
        0
176
     1
290
     0
176
     1
290
     1
176
     1
290
     1
176
     1
290
     0
176
     1
290
     0
176
     1
290
     0
176
     1
290
     0
176
     1
290
     0
176
     1
290
     0
176
     1
 90
       50
176
     1
 40
0.0
176
     1
 40
1.0
176
     1
 90
        0
176
     1
 62
    18
420
        0
176
     1
 90
       50
176
     1
 90
        3
176
     1
 62
     5
420
      255
176
     1
290
     0
176
     1
 90
       50
176
     1
 90
       50
176
     1
 90
       50
176
     1
290
     0
176
     1
 90
       50
176
     1
 62
   256
176
     0
 40
1.0
176
     0
 90
        2
176
     1
  1
strokes_ogs.tif
176
     1
290
     0
176
     1
 40
1.0
176
     1
 40
1.0
176
     1
  0
VISUALSTYLE
  5
BD1
102
{ACAD_REACTORS
330
2F
102
}
330
2F
100
AcDbVisualStyle
  2
Shades of Gray
 70
    23
177
     3
291
     0
 70
    58
 90
        2
176
     1
 90
        2
176
     1
 90
        3
176
     1
 90
        0
176
     1
 40
0.6
176
     1
 40
30.0
176
     1
 62
     7
176
     1
 90
        2
176
     1
 90
        2
176
     1
 62
     7
176
     1
 62
     7
176
     1
 90
        1
176
     1
 90
        1
176
     1
 40
40.0
176
     1
 90
        8
176
     1
 62
     7
176
     1
 40
1.0
176
     1
 90
        1
176
     1
 90
        6
176
     1
 90
        2
176
     1
 62
     7
176
     1
 90
        3
176
     1
 90
        0
176
     1
 90
        0
176
     1
290
     0
176
     1
 90
        1
176
     1
 40
0.0
176
     1
 90
        0
176
     1
290
     0
176
     1
290
     1
176
     1
290
     1
176
     1
290
     0
176
     1
290
     0
176
     1
290
     0
176
     1
290
     0
176
     1
290
     0
176
     1
290
     0
176
     1
 90
       50
176
     1
 40
0.0
176
     1
 40
1.0
176
     1
 90
        0
176
     1
 62
    18
420
        0
176
     1
 90
       50
176
     1
 90
        3
176
     1
 62
     5
420
      255
176
     1
290
     0
176
     1
 90
       50
176
     1
 90
       50
176
     1
 90
       50
176
     1
290
     0
176
     1
 90
       50
176
     1
 62
   256
176
     0
 40
1.0
176
     0
 90
        2
176
     1
  1
strokes_ogs.tif
176
     1
290
     0
176
     1
 40
1.0
176
     1
 40
1.0
176
     1
  0
VISUALSTYLE
  5
BD2
102
{ACAD_REACTORS
330
2F
102
}
330
2F
100
AcDbVisualStyle
  2
Sketchy
 70
    24
177
     3
291
     0
 70
    58
 90
        1
176
     1
 90
        2
176
     1
 90
        2
176
     1
 90
        0
176
     1
 40
0.6
176
     1
 40
30.0
176
     1
 62
     7
176
     1
 90
        2
176
     1
 90
        2
176
     1
 62
     7
176
     1
 62
     7
176
     1
 90
        1
176
     1
 90
        1
176
     1
 40
40.0
176
     1
 90
       11
176
     1
 62
     7
176
     1
 40
1.0
176
     1
 90
        1
176
     1
 90
        6
176
     1
 90
        2
176
     1
 62
     7
176
     1
 90
        6
176
     1
 90
        0
176
     1
 90
        0
176
     1
290
     0
176
     1
 90
        1
176
     1
 40
0.0
176
     1
 90
        0
176
     1
290
     0
176
     1
290
     1
176
     1
290
     1
176
     1
290
     0
176
     1
290
     0
176
     1
290
     0
176
     1
290
     0
176
     1
290
     0
176
     1
290
     0
176
     1
 90
       50
176
     1
 40
0.0
176
     1
 40
1.0
176
     1
 90
        0
176
     1
 62
    18
420
        0
176
     1
 90
       50
176
     1
 90
        3
176
     1
 62
     5
420
      255
176
     1
290
     0
176
     1
 90
       50
176
     1
 90
       50
176
     1
 90
       50
176
     1
290
     0
176
     1
 90
       50
176
     1
 62
   256
176
     0
 40
1.0
176
     0
 90
        2
176
     1
  1
strokes_ogs.tif
176
     1
290
     0
176
     1
 40
1.0
176
     1
 40
1.0
176
     1
  0
VISUALSTYLE
  5
BCD
102
{ACAD_REACTORS
330
2F
102
}
330
2F
100
AcDbVisualStyle
  2
Thicken
 70
    13
177
     3
291
     1
 70
    58
 90
        2
176
     1
 90
        2
176
     1
 90
        0
176
     1
 90
        0
176
     1
 40
0.6
176
     1
 40
30.0
176
     1
 62
     7
176
     1
 90
        1
176
     1
 90
        4
176
     1
 62
     7
176
     1
 62
   257
176
     1
 90
        1
176
     1
 90
        1
176
     1
 40
1.0
176
     1
 90
       12
176
     1
 62
     7
176
     1
 40
1.0
176
     1
 90
        1
176
     1
 90
        6
176
     1
 90
        2
176
     1
 62
     7
176
     1
 90
        5
176
     1
 90
        0
176
     1
 90
        0
176
     1
290
     0
176
     1
 90
        1
176
     1
 40
0.0
176
     1
 90
        0
176
     1
290
     0
176
     1
290
     1
176
     1
290
     1
176
     1
290
     0
176
     1
290
     0
176
     1
290
     0
176
     1
290
     0
176
     1
290
     0
176
     1
290
     0
176
     1
 90
       50
176
     1
 40
0.0
176
     1
 40
1.0
176
     1
 90
        0
176
     1
 62
    18
420
        0
176
     1
 90
       50
176
     1
 90
        3
176
     1
 62
     5
420
      255
176
     1
290
     0
176
     1
 90
       50
176
     1
 90
       50
176
     1
 90
       50
176
     1
290
     0
176
     1
 90
       50
176
     1
 62
   256
176
     0
 40
1.0
176
     0
 90
        2
176
     1
  1
strokes_ogs.tif
176
     1
290
     0
176
     1
 40
1.0
176
     1
 40
1.0
176
     1
  0
VISUALSTYLE
  5
BC8
102
{ACAD_REACTORS
330
2F
102
}
330
2F
100
AcDbVisualStyle
  2
Wireframe
 70
     5
177
     3
291
     0
 70
    58
 90
        0
176
     1
 90
        2
176
     1
 90
        0
176
     1
 90
        0
176
     1
 40
0.6
176
     1
 40
30.0
176
     1
 62
     7
176
     1
 90
        1
176
     1
 90
        4
176
     1
 62
     7
176
     1
 62
   257
176
     1
 90
        1
176
     1
 90
        1
176
     1
 40
1.0
176
     1
 90
        0
176
     1
 62
   257
176
     1
 40
1.0
176
     1
 90
        1
176
     1
 90
        6
176
     1
 90
        2
176
     1
 62
     7
176
     1
 90
        3
176
     1
 90
        0
176
     1
 90
        0
176
     1
290
     0
176
     1
 90
        1
176
     1
 40
0.0
176
     1
 90
        0
176
     1
290
     0
176
     1
290
     1
176
     1
290
     1
176
     1
290
     0
176
     1
290
     0
176
     1
290
     0
176
     1
290
     0
176
     1
290
     0
176
     1
290
     0
176
     1
 90
       50
176
     1
 40
0.0
176
     1
 40
1.0
176
     1
 90
        0
176
     1
 62
    18
420
        0
176
     1
 90
       50
176
     1
 90
        3
176
     1
 62
     5
420
      255
176
     1
290
     0
176
     1
 90
       50
176
     1
 90
       50
176
     1
 90
       50
176
     1
290
     0
176
     1
 90
       50
176
     1
 62
   256
176
     0
 40
1.0
176
     0
 90
        2
176
     1
  1
strokes_ogs.tif
176
     1
290
     0
176
     1
 40
1.0
176
     1
 40
1.0
176
     1
  0
VISUALSTYLE
  5
BD3
102
{ACAD_REACTORS
330
2F
102
}
330
2F
100
AcDbVisualStyle
  2
X-Ray
 70
    25
177
     3
291
     0
 70
    58
 90
        2
176
     1
 90
        2
176
     1
 90
        1
176
     1
 90
        1
176
     1
 40
0.5
176
     1
 40
30.0
176
     1
 62
     7
176
     1
 90
        1
176
     1
 90
        0
176
     1
 62
     7
176
     1
 62
   257
176
     1
 90
        1
176
     1
 90
        1
176
     1
 40
1.0
176
     1
 90
        8
176
     1
 62
     7
176
     1
 40
1.0
176
     1
 90
        1
176
     1
 90
        6
176
     1
 90
        2
176
     1
 62
     7
176
     1
 90
        3
176
     1
 90
        0
176
     1
 90
        0
176
     1
290
     0
176
     1
 90
       13
176
     1
 40
0.0
176
     1
 90
        0
176
     1
290
     0
176
     1
290
     1
176
     1
290
     1
176
     1
290
     0
176
     1
290
     0
176
     1
290
     0
176
     1
290
     0
176
     1
290
     0
176
     1
290
     0
176
     1
 90
       50
176
     1
 40
0.0
176
     1
 40
1.0
176
     1
 90
        0
176
     1
 62
    18
420
        0
176
     1
 90
       50
176
     1
 90
        3
176
     1
 62
     5
420
      255
176
     1
290
     0
176
     1
 90
       50
176
     1
 90
       50
176
     1
 90
       50
176
     1
290
     0
176
     1
 90
       50
176
     1
 62
   256
176
     0
 40
1.0
176
     0
 90
        2
176
     1
  1
strokes_ogs.tif
176
     1
290
     0
176
     1
 40
1.0
176
     1
 40
1.0
176
     1
  0
DICTIONARYVAR
  5
BBE
102
{ACAD_REACTORS
330
BB8
102
}
330
BB8
100
DictionaryVariables
280
     0
  1
1:1
  0
DICTIONARYVAR
  5
BBA
102
{ACAD_REACTORS
330
BB8
102
}
330
BB8
100
DictionaryVariables
280
     0
  1
STANDARD
  0
DICTIONARYVAR
  5
BB9
102
{ACAD_REACTORS
330
BB8
102
}
330
BB8
100
DictionaryVariables
280
     0
  1
STANDARD
  0
DICTIONARYVAR
  5
BBB
102
{ACAD_REACTORS
330
BB8
102
}
330
BB8
100
DictionaryVariables
280
     0
  1
Metric50
  0
DICTIONARYVAR
  5
BBC
102
{ACAD_REACTORS
330
BB8
102
}
330
BB8
100
DictionaryVariables
280
     0
  1
Metric50
  0
DICTIONARYVAR
  5
C3B
102
{ACAD_REACTORS
330
BB8
102
}
330
BB8
100
DictionaryVariables
280
     0
  1
1
  0
DICTIONARYVAR
  5
C39
102
{ACAD_REACTORS
330
BB8
102
}
330
BB8
100
DictionaryVariables
280
     0
  1
1
  0
DICTIONARYVAR
  5
FF3
102
{ACAD_REACTORS
330
BB8
102
}
330
BB8
100
DictionaryVariables
280
     0
  1
4
  0
DICTIONARYVAR
  5
C38
102
{ACAD_REACTORS
330
BB8
102
}
330
BB8
100
DictionaryVariables
280
     0
  1
0
  0
DICTIONARYVAR
  5
BC0
102
{ACAD_REACTORS
330
BB8
102
}
330
BB8
100
DictionaryVariables
280
     0
  1
1
  0
DICTIONARYVAR
  5
BC1
102
{ACAD_REACTORS
330
BB8
102
}
330
BB8
100
DictionaryVariables
280
     0
  1
15
  0
DICTIONARYVAR
  5
BBF
102
{ACAD_REACTORS
330
BB8
102
}
330
BB8
100
DictionaryVariables
280
     0
  1
0
  0
DICTIONARYVAR
  5
BBD
102
{ACAD_REACTORS
330
BB8
102
}
330
BB8
100
DictionaryVariables
280
     0
  1
0
  0
DICTIONARYVAR
  5
C3C
102
{ACAD_REACTORS
330
BB8
102
}
330
BB8
100
DictionaryVariables
280
     0
  1
1
  0
DICTIONARYVAR
  5
C37
102
{ACAD_REACTORS
330
BB8
102
}
330
BB8
100
DictionaryVariables
280
     0
  1
127
  0
ACDBASSOCNETWORK
  5
3C4DB
102
{ACAD_REACTORS
330
3C4DA
102
}
330
3C4DA
100
AcDbAssocAction
 90
        2
 90
        0
330
3C0B3
360
0
 90
        2
 90
        0
 90
        0
 90
        0
 90
        0
 90
        0
 90
        0
100
AcDbAssocNetwork
 90
        0
 90
      191
 90
        1
360
3ECA6
 90
        0
  0
DICTIONARY
  5
3F8B9
330
283CD
100
AcDbDictionary
280
     1
281
     1
  3
ACAD_XREC_ROUNDTRIP
360
3F8BA
  0
DICTIONARY
  5
3F8B5
330
BDD
100
AcDbDictionary
280
     1
281
     1
  3
ACAD_XREC_ROUNDTRIP
360
3F8B6
  0
DICTIONARY
  5
18
330
16
100
AcDbDictionary
280
     1
281
     1
  0
DICTIONARY
  5
1F
330
1E
100
AcDbDictionary
280
     1
281
     1
  0
DICTIONARY
  5
E
330
C
100
AcDbDictionary
280
     1
281
     1
  3
BUMPTILE
360
F
  3
DIFFUSETILE
360
10
  3
OPACITYTILE
360
11
  3
REFLECTIONTILE
360
12
  0
DICTIONARY
  5
3F8B7
330
283CC
100
AcDbDictionary
280
     1
281
     1
  3
ACAD_XREC_ROUNDTRIP
360
3F8B8
  0
DICTIONARY
  5
3F8B3
330
BDB
100
AcDbDictionary
280
     1
281
     1
  3
ACAD_XREC_ROUNDTRIP
360
3F8B4
  0
DICTIONARY
  5
45
330
44
100
AcDbDictionary
280
     1
281
     1
  3
ACAD_ROUNDTRIP_2008_TABLESTYLE_CELLSTYLEMAP
360
3F8B2
  0
ACDBASSOCACTION
  5
3ECA6
330
3C4DB
100
AcDbAssocAction
 90
        2
 90
        0
330
3C4DB
360
3ECA7
 90
      190
 90
        3
 90
        3
360
3ECA8
360
3ECA9
360
3ECAA
 90
        0
 90
        3
360
3ECAB
360
3ECAC
360
3ECAD
 90
        0
 90
       10
 90
        0
  1
FillAngle
 90
        2
 90
        1
 40
6.283185307179586
330
0
330
0
 90
        0
  1
ItemSpacing
 90
        2
 90
        1
 40
1.570796326794896
330
0
330
0
 90
        0
  1
Items
 90
        0
 90
        1
 90
        4
330
0
330
0
 90
        0
  1
LevelSpacing
 90
        1
 90
        1
 40
1.0
330
0
330
0
 90
        0
  1
Levels
 90
        0
 90
        1
 90
        1
330
0
330
0
 90
        0
  1
RowElevation
 90
        1
 90
        1
 40
0.0
330
0
330
0
 90
        0
  1
RowSpacing
 90
        1
 90
        1
 40
10.50000003000002
330
0
330
0
 90
        0
  1
Rows
 90
        0
 90
        1
 90
        1
330
0
330
0
 90
        0
  1
Radius
 90
        1
 90
        1
 40
23.00000000000002
330
0
330
0
 90
        0
  1
StartAngle
 90
        2
 90
        1
 40
0.7853981633974483
330
0
330
0
  0
XRECORD
  5
3F8BA
102
{ACAD_REACTORS
330
3F8B9
102
}
330
3F8B9
100
AcDbXrecord
280
     1
102
DISPLAYNAME
  1
Imperial24
102
FLAGS
 90
        0
  0
XRECORD
  5
3F8B6
102
{ACAD_REACTORS
330
3F8B5
102
}
330
3F8B5
100
AcDbXrecord
280
     1
102
DISPLAYNAME
  1
Metric50
102
FLAGS
 90
        0
  0
XRECORD
  5
F
102
{ACAD_REACTORS
330
E
102
}
330
E
100
AcDbXrecord
280
     1
270
     1
271
     1
  0
XRECORD
  5
10
102
{ACAD_REACTORS
330
E
102
}
330
E
100
AcDbXrecord
280
     1
270
     1
271
     1
  0
XRECORD
  5
11
102
{ACAD_REACTORS
330
E
102
}
330
E
100
AcDbXrecord
280
     1
270
     1
271
     1
  0
XRECORD
  5
12
102
{ACAD_REACTORS
330
E
102
}
330
E
100
AcDbXrecord
280
     1
270
     1
271
     1
  0
XRECORD
  5
3F8B8
102
{ACAD_REACTORS
330
3F8B7
102
}
330
3F8B7
100
AcDbXrecord
280
     1
102
DISPLAYNAME
  1
Imperial24
102
FLAGS
 90
        0
  0
XRECORD
  5
3F8B4
102
{ACAD_REACTORS
330
3F8B3
102
}
330
3F8B3
100
AcDbXrecord
280
     1
102
DISPLAYNAME
  1
Metric50
102
FLAGS
 90
        0
  0
CELLSTYLEMAP
  5
3F8B2
102
{ACAD_REACTORS
330
45
102
}
330
45
100
AcDbCellStyleMap
 90
        3
300
CELLSTYLE
  1
TABLEFORMAT_BEGIN
 90
        5
170
     1
 91
        0
 92
    32768
 62
   257
 93
        1
300
CONTENTFORMAT
  1
CONTENTFORMAT_BEGIN
 90
        0
 91
        0
 92
      512
 93
        0
300

 40
0.0
140
1.0
 94
        5
 62
     0
340
25
144
6.0
309
CONTENTFORMAT_END
171
     1
301
MARGIN
  1
CELLMARGIN_BEGIN
 40
1.5
 40
1.5
 40
1.5
 40
1.5
 40
0.18
 40
0.18
309
CELLMARGIN_END
 94
        6
 95
        1
302
GRIDFORMAT
  1
GRIDFORMAT_BEGIN
 90
        0
 91
        1
 62
     0
 92
       -2
340
28
 93
        0
 40
1.125
309
GRIDFORMAT_END
 95
        2
302
GRIDFORMAT
  1
GRIDFORMAT_BEGIN
 90
        0
 91
        1
 62
     0
 92
       -2
340
28
 93
        0
 40
1.125
309
GRIDFORMAT_END
 95
        4
302
GRIDFORMAT
  1
GRIDFORMAT_BEGIN
 90
        0
 91
        1
 62
     0
 92
       -2
340
28
 93
        0
 40
1.125
309
GRIDFORMAT_END
 95
        8
302
GRIDFORMAT
  1
GRIDFORMAT_BEGIN
 90
        0
 91
        1
 62
     0
 92
       -2
340
28
 93
        0
 40
1.125
309
GRIDFORMAT_END
 95
       16
302
GRIDFORMAT
  1
GRIDFORMAT_BEGIN
 90
        0
 91
        1
 62
     0
 92
       -2
340
28
 93
        0
 40
1.125
309
GRIDFORMAT_END
 95
       32
302
GRIDFORMAT
  1
GRIDFORMAT_BEGIN
 90
        0
 91
        1
 62
     0
 92
       -2
340
28
 93
        0
 40
1.125
309
GRIDFORMAT_END
309
TABLEFORMAT_END
  1
CELLSTYLE_BEGIN
 90
        1
 91
        1
300
_TITLE
309
CELLSTYLE_END
300
CELLSTYLE
  1
TABLEFORMAT_BEGIN
 90
        5
170
     1
 91
        0
 92
        0
 62
   257
 93
        1
300
CONTENTFORMAT
  1
CONTENTFORMAT_BEGIN
 90
        0
 91
        0
 92
      512
 93
        0
300

 40
0.0
140
1.0
 94
        5
 62
     0
340
25
144
4.5
309
CONTENTFORMAT_END
171
     1
301
MARGIN
  1
CELLMARGIN_BEGIN
 40
1.5
 40
1.5
 40
1.5
 40
1.5
 40
0.18
 40
0.18
309
CELLMARGIN_END
 94
        6
 95
        1
302
GRIDFORMAT
  1
GRIDFORMAT_BEGIN
 90
        0
 91
        1
 62
     0
 92
       -2
340
28
 93
        0
 40
1.125
309
GRIDFORMAT_END
 95
        2
302
GRIDFORMAT
  1
GRIDFORMAT_BEGIN
 90
        0
 91
        1
 62
     0
 92
       -2
340
28
 93
        0
 40
1.125
309
GRIDFORMAT_END
 95
        4
302
GRIDFORMAT
  1
GRIDFORMAT_BEGIN
 90
        0
 91
        1
 62
     0
 92
       -2
340
28
 93
        0
 40
1.125
309
GRIDFORMAT_END
 95
        8
302
GRIDFORMAT
  1
GRIDFORMAT_BEGIN
 90
        0
 91
        1
 62
     0
 92
       -2
340
28
 93
        0
 40
1.125
309
GRIDFORMAT_END
 95
       16
302
GRIDFORMAT
  1
GRIDFORMAT_BEGIN
 90
        0
 91
        1
 62
     0
 92
       -2
340
28
 93
        0
 40
1.125
309
GRIDFORMAT_END
 95
       32
302
GRIDFORMAT
  1
GRIDFORMAT_BEGIN
 90
        0
 91
        1
 62
     0
 92
       -2
340
28
 93
        0
 40
1.125
309
GRIDFORMAT_END
309
TABLEFORMAT_END
  1
CELLSTYLE_BEGIN
 90
        2
 91
        1
300
_HEADER
309
CELLSTYLE_END
300
CELLSTYLE
  1
TABLEFORMAT_BEGIN
 90
        5
170
     1
 91
        0
 92
        0
 62
   257
 93
        1
300
CONTENTFORMAT
  1
CONTENTFORMAT_BEGIN
 90
        0
 91
        0
 92
      512
 93
        0
300

 40
0.0
140
1.0
 94
        2
 62
     0
340
25
144
4.5
309
CONTENTFORMAT_END
171
     1
301
MARGIN
  1
CELLMARGIN_BEGIN
 40
1.5
 40
1.5
 40
1.5
 40
1.5
 40
0.18
 40
0.18
309
CELLMARGIN_END
 94
        6
 95
        1
302
GRIDFORMAT
  1
GRIDFORMAT_BEGIN
 90
        0
 91
        1
 62
     0
 92
       -2
340
28
 93
        0
 40
1.125
309
GRIDFORMAT_END
 95
        2
302
GRIDFORMAT
  1
GRIDFORMAT_BEGIN
 90
        0
 91
        1
 62
     0
 92
       -2
340
28
 93
        0
 40
1.125
309
GRIDFORMAT_END
 95
        4
302
GRIDFORMAT
  1
GRIDFORMAT_BEGIN
 90
        0
 91
        1
 62
     0
 92
       -2
340
28
 93
        0
 40
1.125
309
GRIDFORMAT_END
 95
        8
302
GRIDFORMAT
  1
GRIDFORMAT_BEGIN
 90
        0
 91
        1
 62
     0
 92
       -2
340
28
 93
        0
 40
1.125
309
GRIDFORMAT_END
 95
       16
302
GRIDFORMAT
  1
GRIDFORMAT_BEGIN
 90
        0
 91
        1
 62
     0
 92
       -2
340
28
 93
        0
 40
1.125
309
GRIDFORMAT_END
 95
       32
302
GRIDFORMAT
  1
GRIDFORMAT_BEGIN
 90
        0
 91
        1
 62
     0
 92
       -2
340
28
 93
        0
 40
1.125
309
GRIDFORMAT_END
309
TABLEFORMAT_END
  1
CELLSTYLE_BEGIN
 90
        3
 91
        2
300
_DATA
309
CELLSTYLE_END
  0
ACDBASSOCARRAYACTIONBODY
  5
3ECA7
330
3ECA6
100
AcDbAssocActionBody
 90
        2
100
AcDbAssocArrayActionBody
 90
        1
  1
AcDbAssocArrayPolarParameters
 90
        0
 90
        4
  1
AcDbAssocArrayItem
100
AcDbAssocArrayItem
 90
        0
 90
        0
 90
        0
 90
        0
 90
        8
 11
3337.414315791387
 21
-851.6397942331115
 31
0.0
330
3ECB7
100
AcDbAssocArrayItem
 90
        0
 90
        1
 90
        0
 90
        0
 90
       12
 40
-0.0000000000000002
 40
-1.0
 40
0.0
 40
3304.887403856806
 40
1.0
 40
0.0
 40
0.0
 40
-851.6397942331115
 40
0.0
 40
0.0
 40
1.0
 40
0.0
 40
0.0
 40
0.0
 40
0.0
 40
1.0
330
3ECB8
100
AcDbAssocArrayItem
 90
        0
 90
        2
 90
        0
 90
        0
 90
       12
 40
-1.0
 40
-0.0000000000000001
 40
0.0
 40
3304.887403856806
 40
0.0
 40
-1.0
 40
0.0
 40
-884.1667061676927
 40
0.0
 40
0.0
 40
1.0
 40
0.0
 40
0.0
 40
0.0
 40
0.0
 40
1.0
330
3ECB9
100
AcDbAssocArrayItem
 90
        0
 90
        3
 90
        0
 90
        0
 90
       12
 40
-0.0000000000000002
 40
1.0
 40
0.0
 40
3337.414315791387
 40
-1.0
 40
-0.0000000000000002
 40
0.0
 40
-884.1667061676927
 40
0.0
 40
0.0
 40
1.0
 40
0.0
 40
0.0
 40
0.0
 40
0.0
 40
1.0
330
3ECBA
 40
1.0
 40
0.0
 40
0.0
 40
-3103.034147121849
 40
0.0
 40
1.0
 40
0.0
 40
963.7320536275614
 40
0.0
 40
0.0
 40
1.0
 40
0.0
 40
0.0
 40
0.0
 40
0.0
 40
1.0
  0
ACDBASSOCDEPENDENCY
  5
3ECA8
330
3ECA6
100
AcDbAssocDependency
 90
        2
 90
        0
290
     0
290
     1
290
     1
290
     1
 90
        0
330
3ECB4
290
     0
330
0
330
0
360
0
 90
        1
  0
ACDBASSOCDEPENDENCY
  5
3ECA9
330
3ECA6
100
AcDbAssocDependency
 90
        2
 90
        0
290
     1
290
     0
290
     1
290
     1
 90
        0
330
3ECAE
290
     0
330
0
330
0
360
0
 90
        2
  0
ACDBASSOCDEPENDENCY
  5
3ECAA
330
3ECA6
100
AcDbAssocDependency
 90
        2
 90
        0
290
     1
290
     1
290
     1
290
     1
 90
-2147483648
330
3EC97
290
     0
330
0
330
0
360
0
 90
        3
  0
ACDBASSOCVERTEXACTIONPARAM
  5
3ECAB
330
3ECA6
100
AcDbAssocActionParam
 90
        1
 90
        0
  1
BaseNormal
100
AcDbAssocSingleDependencyActionParam
 90
        0
330
0
100
AcDbAssocVertexActionParam
 90
        0
 10
0.0
 20
0.0
 30
1.0
  0
ACDBASSOCVERTEXACTIONPARAM
  5
3ECAC
330
3ECA6
100
AcDbAssocActionParam
 90
        1
 90
        0
  1
Origin
100
AcDbAssocSingleDependencyActionParam
 90
        0
330
0
100
AcDbAssocVertexActionParam
 90
        0
 10
3321.150859824096
 20
-867.9032502004021
 30
0.0
  0
ACDBASSOCVERTEXACTIONPARAM
  5
3ECAD
330
3ECA6
100
AcDbAssocActionParam
 90
        1
 90
        0
  1
basePoint
100
AcDbAssocSingleDependencyActionParam
 90
        0
330
0
100
AcDbAssocVertexActionParam
 90
        0
 10
0.0
 20
0.0
 30
0.0
  0
ENDSEC
  0
SECTION
  2
ACDSDATA
 70
     2
 71
     6
  0
ACDSSCHEMA
 90
        0
  1
AcDb_Thumbnail_Schema
  2
AcDbDs::ID
280
    10
 91
        8
  2
Thumbnail_Data
280
    15
 91
        0
101
ACDSRECORD
 95
        0
 90
        1
  2
AcDbDs::TreatedAsObjectData
280
     1
291
     1
101
ACDSRECORD
 95
        0
 90
        2
  2
AcDbDs::Legacy
280
     1
291
     1
101
ACDSRECORD
  1
AcDbDs::ID
 90
        3
  2
AcDs:Indexable
280
     1
291
     1
101
ACDSRECORD
  1
AcDbDs::ID
 90
        4
  2
AcDbDs::HandleAttribute
280
     7
282
     1
  0
ACDSSCHEMA
 90
        1
  1
AcDbDs::TreatedAsObjectDataSchema
  2
AcDbDs::TreatedAsObjectData
280
     1
 91
        0
  0
ACDSSCHEMA
 90
        2
  1
AcDbDs::LegacySchema
  2
AcDbDs::Legacy
280
     1
 91
        0
  0
ACDSSCHEMA
 90
        3
  1
AcDbDs::IndexedPropertySchema
  2
AcDs:Indexable
280
     1
 91
        0
  0
ACDSSCHEMA
 90
        4
  1
AcDbDs::HandleAttributeSchema
  2
AcDbDs::HandleAttribute
280
     7
 91
        1
284
     1
  0
ACDSRECORD
 90
        0
  2
AcDbDs::ID
280
    10
320
16
  2
Thumbnail_Data
280
    15
 94
     2119
310
89504E470D0A1A0A0000000D494844520000010000000076080300000010A0BD3C00000300504C5445000000000000C8C8C80000000000000000000000000000000000000000000000000000330000660000990000CC0000FF0033000033330033660033990033CC0033FF0066000066330066660066990066CC0066FF0099
310
000099330099660099990099CC0099FF00CC0000CC3300CC6600CC9900CCCC00CCFF00FF0000FF3300FF6600FF9900FFCC00FFFF3300003300333300663300993300CC3300FF3333003333333333663333993333CC3333FF3366003366333366663366993366CC3366FF3399003399333399663399993399CC3399FF33CC00
310
33CC3333CC6633CC9933CCCC33CCFF33FF0033FF3333FF6633FF9933FFCC33FFFF6600006600336600666600996600CC6600FF6633006633336633666633996633CC6633FF6666006666336666666666996666CC6666FF6699006699336699666699996699CC6699FF66CC0066CC3366CC6666CC9966CCCC66CCFF66FF0066
310
FF3366FF6666FF9966FFCC66FFFF9900009900339900669900999900CC9900FF9933009933339933669933999933CC9933FF9966009966339966669966999966CC9966FF9999009999339999669999999999CC9999FF99CC0099CC3399CC6699CC9999CCCC99CCFF99FF0099FF3399FF6699FF9999FFCC99FFFFCC0000CC00
310
33CC0066CC0099CC00CCCC00FFCC3300CC3333CC3366CC3399CC33CCCC33FFCC6600CC6633CC6666CC6699CC66CCCC66FFCC9900CC9933CC9966CC9999CC99CCCC99FFCCCC00CCCC33CCCC66CCCC99CCCCCCCCCCFFCCFF00CCFF33CCFF66CCFF99CCFFCCCCFFFFFF0000FF0033FF0066FF0099FF00CCFF00FFFF3300FF3333
310
FF3366FF3399FF33CCFF33FFFF6600FF6633FF6666FF6699FF66CCFF66FFFF9900FF9933FF9966FF9999FF99CCFF99FFFFCC00FFCC33FFCC66FFCC99FFCCCCFFCCFFFFFF00FFFF33FFFF66FFFF99FFFFCCFFFFFF0000000D0D0D1A1A1A2828283535354343435050505D5D5D6B6B6B787878868686939393A1A1A1AEAEAEBB
310
BBBBC9C9C9D6D6D6E4E4E4F1F1F1FFFFFF00000000000000000000000000000000000000000000000000000000000008F1915C000005024944415478DAED9D5B9AAB200C80594E5ED8D92C996DE47DE41E6E8AAD02D530DF776A1DEA213FB911B123C43D0DAFEE88E2B75AB75C3F06002B4D29EC6BBD1DBFBCE0F08955AAF3
310
C3BD1DBFBB202EA1D93F607C0C8001300006C00018000360000C8001300006D0DDBAD76913DBAD637C3D00F6010C8001300006C000180003600007B918BC1680D289A89A9A31DF09E0F8C6DB3900FDA094B9A8FEB960904B680088D00F7A016804F0141380AD6DFDF40BF6A88A6FBF0140F4694079D8D1E0291AF05800D017
310
063B00A82ACE176940C3F06169006E7CD7698075FEB02E0095C56740C81ADDB9138F204A03270D1F603500497C2E3400A510D27D12B7A3725753826B9F80D919A5E3673BDB990240ED0130F24BFDAAE5D787168944DD11936BB666179CF8FA7FD47D543BE39BE403F6003815D85A941F2C920D80C41E1707614BA1F1082A02
310
5903008823139056723FFF20AB1AB00300836F0C00AAE3590140F084CEE995F29B57E71DBB00845EEECAED012DA2015638A3F955F9C1DA0180EC32810DA9F711DADF28111800099BF7036866384057A356743FD3ADF9D776609C5E07802D526C4A85002ED9B4AB48732EB8069F7E4DB937085174231B1049A3BC52BA7FA475
310
82DD00740071E21300FE1C9A718D0150D7AF64D2A19C694926DD9F3F650206C0D6195300DA2EC0FC9A46E2A13EC04B0E8984CEC2A9BCB9FCE74CC06A00161A802E6FD0C9118C768299A5CB44389047F2DB14104DA0F021A39517A3B378924EA34FBB6D8249F3A761001A92417DBEF3F7682F06249B692DA330FE124C6F70B3
310
6FCF7BD3180E804806E9E4FB134DF9DD149E06A08FC3DA0A435A900A3DD404305FFB899EF94717BB30CD67F70010F99D06188B00EB45E600A0F3119E61819D075C82FCF21400A200FA73E0934D6FF99301E4350C9BB4433B585AED6D00A815D34888437B6DCB009DE9834A2B500B038831ED14002FA4C2100FB4E6A38E7E8E
310
8DC2C703080AA0ADC0464C525B9A00C02CF8302F80D91B1D59458C1EF8A4DEBEF1E7ADA00D00E452E9A5130F3C06002DC2606751342D5A60A1347131D369022629F6D5B19A09DC796FF05B00F8090065AB80E629496115C13841EF03722788E37CC00700C4471AE0C3A015DD86418F12622960B8133C098066707500FB7900
310
20C98A822ACDCC03FA00C40480F8FEB2D6A90E32418090FFC56432D0581F80097F9F02F07EDE28BE8709BF022026717B00DAF500B3EA07D21BC2424A944B816100A0F1A4FAF5007CFE07653DC02D07E60048F4FB5600AE24466CC5D70405160A30164061E8770280A226684D03C57C0039888B0108B4000A0D28AA21B30154
310
4CE31200AE025EB92F00655EB10080746FC015007CD9CFEC2D03A1A0726768250D2887FE2500BA0E5DE4DEE06800A11FBD3B8CA3EF0E9365D77900B116FC1100FF49BA3FE0608C4B01080E7117C0FEFE1F83D001687E63D0A87B839F0070252DBA3DA8A8AC1F8EC0ED11EA18E214000047BBC4CA9871D710E7684049E4B007
310
0360000CE0D1008E103C1D805BB7BE1AC07E6F06C00018C0AF008889AC527D4F47FA7E6D21D5D5AB97310F4E5E08E0EA076DC798C0EB019C6D031F275F11801AF90D4C4B0250039FA8E76F9060000C8001300006F03400E5DEF3BFAC4DFC030B63A73507B01D9937638638ED0B82B0AE0BB5797FE6778AAE0260BE09647EA0
310
F2B755DEE2040B006F71826F0D830C205B5CA78D01BC3013DC7B3E917D000378208060EBAAD518009BC008003FD086CF4EF79F3DAC75AC8DF7AB0B4E68DF8D7736807F7E96C29D82EF25390000000049454E44AE426082
  0
ACDSRECORD
 90
        0
  2
AcDbDs::ID
280
    10
320
1E
  2
Thumbnail_Data
280
    15
 94
      882
310
89504E470D0A1A0A0000000D49484452000000B80000007F08030000006B00F8F900000300504C5445FFFFFF000000C8C8C80000000000000000000000000000000000000000000000000000330000660000990000CC0000FF0033000033330033660033990033CC0033FF0066000066330066660066990066CC0066FF0099
310
000099330099660099990099CC0099FF00CC0000CC3300CC6600CC9900CCCC00CCFF00FF0000FF3300FF6600FF9900FFCC00FFFF3300003300333300663300993300CC3300FF3333003333333333663333993333CC3333FF3366003366333366663366993366CC3366FF3399003399333399663399993399CC3399FF33CC00
310
33CC3333CC6633CC9933CCCC33CCFF33FF0033FF3333FF6633FF9933FFCC33FFFF6600006600336600666600996600CC6600FF6633006633336633666633996633CC6633FF6666006666336666666666996666CC6666FF6699006699336699666699996699CC6699FF66CC0066CC3366CC6666CC9966CCCC66CCFF66FF0066
310
FF3366FF6666FF9966FFCC66FFFF9900009900339900669900999900CC9900FF9933009933339933669933999933CC9933FF9966009966339966669966999966CC9966FF9999009999339999669999999999CC9999FF99CC0099CC3399CC6699CC9999CCCC99CCFF99FF0099FF3399FF6699FF9999FFCC99FFFFCC0000CC00
310
33CC0066CC0099CC00CCCC00FFCC3300CC3333CC3366CC3399CC33CCCC33FFCC6600CC6633CC6666CC6699CC66CCCC66FFCC9900CC9933CC9966CC9999CC99CCCC99FFCCCC00CCCC33CCCC66CCCC99CCCCCCCCCCFFCCFF00CCFF33CCFF66CCFF99CCFFCCCCFFFFFF0000FF0033FF0066FF0099FF00CCFF00FFFF3300FF3333
310
FF3366FF3399FF33CCFF33FFFF6600FF6633FF6666FF6699FF66CCFF66FFFF9900FF9933FF9966FF9999FF99CCFF99FFFFCC00FFCC33FFCC66FFCC99FFCCCCFFCCFFFFFF00FFFF33FFFF66FFFF99FFFFCCFFFFFF0000000D0D0D1A1A1A2828283535354343435050505D5D5D6B6B6B787878868686939393A1A1A1AEAEAEBB
310
BBBBC9C9C9D6D6D6E4E4E4F1F1F1FFFFFF000000000000000000000000000000000000000000000000000000000000B0E2D2350000002D4944415478DAEDC13101000000C2A0F54FED6F06A00000000000000000000000000000000000000000000080335BC70001E79522D80000000049454E44AE426082
  0
ENDSEC
  0
EOF
